<?xml version="1.0" standalone="no"?>
<!DOCTYPE svg PUBLIC "-//W3C//DTD SVG 1.1//EN" "http://www.w3.org/Graphics/SVG/1.1/DTD/svg11.dtd" >
<svg xmlns="http://www.w3.org/2000/svg" xmlns:xlink="http://www.w3.org/1999/xlink" version="1.1">
<metadata>
Created by FontForge 20201107 at Mon Jan  3 15:59:54 2022
 By 
(c) 2021 Microsoft Corporation. All Rights Reserved.
Hebrew OpenType Layout logic copyright (c) 2003 &#38; 2007, Ralph Hancock &#38; John Hudson. This layout logic for Biblical Hebrew is open source software under the MIT License; see embedded license description for details.
</metadata>
<defs>
<font id="Calibri-Bold" horiz-adv-x="0" >
  <font-face 
    font-family="Calibri"
    font-weight="700"
    font-stretch="normal"
    units-per-em="2048"
    panose-1="2 15 7 2 3 4 4 3 2 4"
    ascent="1536"
    descent="-512"
    x-height="960"
    cap-height="1294"
    bbox="-1061.08 -715 2586 2128"
    underline-thickness="134"
    underline-position="-299"
    unicode-range="U+000D-1DF04"
  />
<missing-glyph horiz-adv-x="1038" 
d="M987 1294v-1294h-945v1294h945zM879 101v1092h-732v-1092h732zM780 845q0 -57 -16.5 -101t-46 -75t-71 -49t-90.5 -24l-5 -121q-1 -13 -22.5 -18.5t-58.5 -5.5q-23 0 -38.5 1t-25 3.5t-13.5 7t-4 12.5l-8 157q-3 40 12.5 55t45.5 15h13q37 0 62.5 10.5t41.5 28.5
t23.5 42.5t7.5 52.5q0 61 -37.5 98.5t-114.5 37.5q-35 0 -62 -6.5t-47 -14t-33 -14t-18 -6.5q-4 0 -8 2.5t-7 9.5t-4.5 20.5t-1.5 36.5q0 26 2.5 40t10.5 21q7 8 26.5 16.5t46.5 15.5t60 12t68 5q85 0 144.5 -21t96.5 -57t54 -84.5t17 -102.5zM574 284q0 -26 -5 -44.5
t-17 -30t-31.5 -16.5t-47.5 -5q-29 0 -48.5 5t-31.5 16.5t-17 30t-5 44.5q0 28 5 46.5t17 30.5t31.5 17t48.5 5q28 0 47.5 -5t31.5 -17t17 -30.5t5 -46.5zM0 -397z" />
    <glyph glyph-name="uniFB00" unicode="ff" horiz-adv-x="1230" 
d="M1247 1268q0 -48 -6.5 -68t-21.5 -20q-7 0 -15.5 3t-21 7t-28.5 7t-37 3q-58 0 -83.5 -36t-25.5 -119v-85h163q9 0 16.5 -5t13 -16.5t8 -31.5t2.5 -49q0 -55 -10.5 -78.5t-28.5 -23.5h-164v-722q0 -10 -6 -17.5t-20 -12.5t-38.5 -7.5t-60.5 -2.5q-37 0 -61.5 2.5
t-38.5 7.5t-20 12.5t-6 17.5v722h-331v-722q0 -10 -6 -17.5t-20.5 -12.5t-39 -7.5t-60.5 -2.5t-60.5 2.5t-39 7.5t-20 12.5t-5.5 17.5v722h-112q-19 0 -28.5 23.5t-9.5 78.5q0 29 2.5 49t7 31.5t12 16.5t17.5 5h111v66q0 90 18.5 158t57 113.5t97 68.5t138.5 23
q44 0 79 -7.5t60 -16.5q12 -4 19 -10.5t11.5 -19t6.5 -32t2 -48.5q0 -49 -6.5 -69t-21.5 -20q-7 0 -16 3l-21 7t-28.5 7.5t-36.5 3.5q-58 0 -83 -36.5t-25 -119.5v-71h331v79q0 91 19 159t57.5 113.5t97 68t139.5 22.5q43 0 78.5 -7t60.5 -16q11 -4 18.5 -11t11.5 -19t6 -32
t2 -49z" />
    <glyph glyph-name="uniFB01" unicode="fi" horiz-adv-x="1135" 
d="M1027 1226q0 -37 -6.5 -62.5t-22.5 -41t-43.5 -22t-68.5 -6.5t-69 6.5t-44.5 22t-23 41t-6.5 62.5q0 36 6.5 61t23 41t44.5 23t69 7t68.5 -7t43.5 -23t22.5 -41t6.5 -61zM1008 34q0 -10 -6 -17.5t-20 -12.5t-38.5 -7.5t-60.5 -2.5q-37 0 -61.5 2.5t-38.5 7.5t-20 12.5
t-6 17.5v722h-331v-722q0 -10 -6 -17.5t-20 -12.5t-38.5 -7.5t-61.5 -2.5q-36 0 -60.5 2.5t-39 7.5t-20 12.5t-5.5 17.5v722h-112q-19 0 -28.5 23.5t-9.5 78.5q0 29 2.5 49t7 31.5t12 16.5t17.5 5h111v79q0 91 18.5 159t56.5 113.5t96 68t137 22.5q22 0 44.5 -2t42.5 -6
t35 -9t20.5 -10.5t9 -12.5t6 -18t3.5 -28.5t1 -43.5q0 -48 -5.5 -67.5t-21.5 -19.5q-6 0 -13.5 2t-18 5t-24.5 5.5t-35 2.5q-53 0 -77 -36t-24 -119v-85h506q38 0 57 -16.5t19 -52.5v-857z" />
    <glyph glyph-name="uniFB02" unicode="fl" horiz-adv-x="1135" 
d="M1008 34q0 -10 -6 -17.5t-20 -12.5t-38.5 -7.5t-60.5 -2.5q-37 0 -61.5 2.5t-38.5 7.5t-20 12.5t-6 17.5v1158q-3 -6 -8.5 -9t-13.5 -3q-11 0 -29 4t-40 7.5t-43.5 5t-42.5 1.5q-45 0 -75 -9t-47.5 -27.5t-24.5 -48.5t-7 -71v-82h148q10 0 17.5 -5t12.5 -16.5t7.5 -31.5
t2.5 -49q0 -55 -10 -78.5t-29 -23.5h-149v-722q0 -10 -6 -17.5t-20 -12.5t-38.5 -7.5t-61.5 -2.5q-36 0 -60.5 2.5t-39 7.5t-20 12.5t-5.5 17.5v722h-112q-19 0 -28.5 23.5t-9.5 78.5q0 29 2.5 49t7 31.5t12 16.5t17.5 5h111v77q0 90 20 158.5t63.5 114t110 68t160.5 22.5
q27 0 57.5 -2t59.5 -5.5t50 -8t33 -9t19 -10.5t10 -15q1 9 5.5 16t17 13t37 9.5t65.5 3.5q36 0 60.5 -3t38.5 -8.5t20 -13.5t6 -18v-1315z" />
    <glyph glyph-name="uniFB03" unicode="ffi" horiz-adv-x="1718" 
d="M1611 1226q0 -37 -6.5 -62.5t-23 -41t-44 -22t-69.5 -6.5q-41 0 -68.5 6.5t-44 22t-23.5 41t-7 62.5q0 36 7 61t23.5 41t44 23t68.5 7q42 0 69.5 -7t44 -23t23 -41t6.5 -61zM1592 34q0 -10 -6 -17.5t-20.5 -12.5t-38.5 -7.5t-61 -2.5t-61 2.5t-38.5 7.5t-20.5 12.5
t-6 17.5v722h-332v-722q0 -10 -6 -17.5t-20 -12.5t-38.5 -7.5t-60.5 -2.5q-37 0 -61.5 2.5t-38.5 7.5t-20 12.5t-6 17.5v722h-331v-722q0 -10 -6 -17.5t-20 -12.5t-39 -7.5t-61 -2.5t-60.5 2.5t-39 7.5t-20 12.5t-5.5 17.5v722h-112q-19 0 -28.5 23.5t-9.5 78.5q0 29 2.5 49
t7 31.5t12 16.5t17.5 5h111v66q0 90 18.5 158t57 113.5t97 68.5t138.5 23q44 0 78.5 -7t53.5 -14t26 -13.5t11.5 -19t6.5 -32t2 -48.5q0 -49 -6.5 -69t-21.5 -20q-7 0 -16 3t-21.5 7t-29 7.5t-36.5 3.5q-57 0 -82 -36.5t-25 -119.5v-71h331v79q0 91 19 159t57 113.5t96 68
t137 22.5q21 0 44.5 -2t43 -6t34.5 -9t20.5 -10.5t9 -12.5t6 -18t3.5 -28.5t1 -43.5q0 -48 -5.5 -67.5t-21.5 -19.5q-6 0 -13.5 2t-18 5t-25 5.5t-34.5 2.5q-54 0 -78 -36t-24 -119v-85h507q38 0 57.5 -16.5t19.5 -52.5v-857z" />
    <glyph glyph-name="uniFB04" unicode="ffl" horiz-adv-x="1718" 
d="M1592 34q0 -10 -6 -17.5t-20.5 -12.5t-38.5 -7.5t-61 -2.5t-61 2.5t-38.5 7.5t-20.5 12.5t-6 17.5v1161q-4 -6 -9 -9.5t-14 -3.5q-10 0 -28 4t-40 7.5t-43.5 5t-42.5 1.5q-45 0 -75 -8.5t-47.5 -27.5t-25 -48.5t-7.5 -70.5v-85h149q10 0 17 -5t12.5 -16.5t8 -31.5
t2.5 -49q0 -55 -10.5 -78.5t-28.5 -23.5h-150v-722q0 -10 -6 -17.5t-20 -12.5t-38.5 -7.5t-60.5 -2.5q-37 0 -61.5 2.5t-38.5 7.5t-20 12.5t-6 17.5v722h-331v-722q0 -10 -6 -17.5t-20 -12.5t-39 -7.5t-61 -2.5t-60.5 2.5t-39 7.5t-20 12.5t-5.5 17.5v722h-112
q-19 0 -28.5 23.5t-9.5 78.5q0 29 2.5 49t7 31.5t12 16.5t17.5 5h111v66q0 90 18.5 158t57 113.5t97 68.5t138.5 23q44 0 79 -7.5t53.5 -14t25.5 -13t11.5 -19t6.5 -32t2 -48.5q0 -49 -6.5 -69t-21.5 -20q-7 0 -16 3l-21 7t-28.5 7.5t-36.5 3.5q-58 0 -83 -36.5t-25 -119.5
v-71h331v79q0 91 20.5 159t64 113.5t110 68t160.5 22.5q27 0 58 -2t59 -5.5t49.5 -8t33.5 -8.5t18.5 -10.5t10.5 -17.5q1 9 5 16t17.5 13t38 9.5t64.5 3.5q37 0 61 -3t38.5 -8.5t20.5 -13.5t6 -18v-1315z" />
    <glyph glyph-name="uniFB13" unicode="&#x574;&#x576;" horiz-adv-x="2198" 
d="M1472 417q0 -62 10.5 -104.5t29.5 -68.5t47 -37t62 -11q48 0 96.5 35t102.5 102v593q0 20 26.5 30t99.5 10q74 0 100 -10t26 -30v-892q0 -20 -23 -30t-85 -10q-64 0 -85.5 10t-21.5 30v103q-75 -81 -150.5 -120.5t-159.5 -39.5q-87 0 -149 27t-101.5 78t-58 125
t-18.5 168v807h-247v-1148q0 -20 -23 -30t-85 -10q-64 0 -85.5 10t-21.5 30v103q-75 -81 -150.5 -120.5t-159.5 -39.5q-87 0 -149 27t-101.5 78t-58 125t-18.5 168v551q0 20 26.5 30t99.5 10q74 0 100 -10t26 -30v-509q0 -62 10.5 -104.5t29.5 -68.5t47 -37t62 -11
q48 0 96.5 35t102.5 102v976q0 41 24 59t51 18h601q27 0 51 -18t24 -59v-892z" />
    <glyph glyph-name="uniFB14" unicode="&#x574;&#x565;" horiz-adv-x="2198" 
d="M1147 1386q19 0 29 -21.5t10 -80.5q0 -55 -10 -78.5t-29 -23.5h-174v-1148q0 -20 -23 -30t-85 -10q-64 0 -85.5 10t-21.5 30v103q-75 -81 -150.5 -120.5t-159.5 -39.5q-87 0 -149 27t-101.5 78t-58 125t-18.5 168v551q0 20 26.5 30t99.5 10q74 0 100 -10t26 -30v-509
q0 -62 10.5 -104.5t29.5 -68.5t47 -37t62 -11q48 0 96.5 35t102.5 102v976q0 41 24 59t51 18h351zM1220 1352q0 20 26 30t99 10q74 0 100.5 -10t26.5 -30v-392h609q19 0 29 -21.5t10 -80.5q0 -55 -10 -78.5t-29 -23.5h-609v-339q0 -62 10.5 -104.5t29.5 -68.5t47 -37t62 -11
q48 0 96.5 35t102.5 102v195q0 20 26.5 30t99.5 10q74 0 100 -10t26 -30v-494q0 -20 -23 -30t-85 -10q-64 0 -85.5 10t-21.5 30v103q-75 -81 -150.5 -120.5t-159.5 -39.5q-87 0 -149 27t-101.5 78t-58 125t-18.5 168v977z" />
    <glyph glyph-name="uniFB15" unicode="&#x574;&#x56b;" horiz-adv-x="2198" 
d="M1147 1386q19 0 29 -21.5t10 -80.5q0 -55 -10 -78.5t-29 -23.5h-174v-1148q0 -20 -23 -30t-85 -10q-64 0 -85.5 10t-21.5 30v103q-75 -81 -150.5 -120.5t-159.5 -39.5q-87 0 -149 27t-101.5 78t-58 125t-18.5 168v551q0 20 26.5 30t99.5 10q74 0 100 -10t26 -30v-509
q0 -62 10.5 -104.5t29.5 -68.5t47 -37t62 -11q48 0 96.5 35t102.5 102v976q0 41 24 59t51 18h351zM2072 34q0 -20 -26 -30t-99 -10q-74 0 -100.5 10t-26.5 30v509q0 62 -10.5 104.5t-29.5 68.5t-46.5 37t-62.5 11q-48 0 -96.5 -35t-102.5 -102v-950q0 -20 -26 -30t-100 -10
q-73 0 -99.5 10t-26.5 30v1672q0 20 26.5 31.5t99.5 11.5q74 0 100 -11.5t26 -31.5v-493q130 127 273 127q87 0 149 -27t101.5 -78.5t58 -126t18.5 -170.5v-547z" />
    <glyph glyph-name="uniFB16" unicode="&#x57e;&#x576;" horiz-adv-x="2198" 
d="M973 -153h174q19 0 29 -21.5t10 -80.5q0 -55 -10 -78.5t-29 -23.5h-351q-27 0 -51 18t-24 59v384q-130 -127 -273 -127q-87 0 -149 27t-101.5 78.5t-58 126t-18.5 170.5v547q0 20 26 30t99 10q74 0 100.5 -10t26.5 -30v-509q0 -62 10.5 -104.5t29.5 -68.5t47 -37t62 -11
q48 0 96.5 35t102.5 102v1019q0 20 26.5 30t99.5 10q74 0 100 -10t26 -30v-1505zM1472 417q0 -62 10.5 -104.5t29.5 -68.5t47 -37t62 -11q48 0 96.5 35t102.5 102v593q0 20 26.5 30t99.5 10q74 0 100 -10t26 -30v-892q0 -20 -23 -30t-85 -10q-64 0 -85.5 10t-21.5 30v103
q-75 -81 -150.5 -120.5t-159.5 -39.5q-87 0 -149 27t-101.5 78t-58 125t-18.5 168v807h-184q-19 0 -29 21.5t-10 80.5q0 55 10 78.5t29 23.5h361q27 0 51 -18t24 -59v-892z" />
    <glyph glyph-name="uniFB17" unicode="&#x574;&#x56d;" horiz-adv-x="2655" 
d="M1117 1386q19 0 29 -21.5t10 -80.5q0 -55 -10 -78.5t-29 -23.5h-164v-1148q0 -20 -23 -30t-85 -10q-64 0 -85.5 10t-21.5 30v103q-75 -81 -145.5 -120.5t-154.5 -39.5q-87 0 -147.5 27t-98 78t-54.5 125t-17 168v551q0 20 26.5 30t99.5 10q74 0 100 -10t26 -30v-509
q0 -62 9 -104.5t26 -68.5t43.5 -37t60.5 -11q48 0 91.5 35t97.5 102v976q0 41 24 59t51 18h341zM1961 397v-18q0 -97 32.5 -140t102.5 -43q46 0 90 36.5t91 100.5v593q0 20 26.5 30t99.5 10q74 0 100 -10t26 -30v-892q0 -20 -23 -30t-85 -10q-64 0 -85.5 10t-21.5 30v103
q-75 -81 -142.5 -120.5t-148.5 -39.5q-54 0 -110 15.5t-101 53.5t-74 103.5t-29 164.5v19l7 230v14q0 89 -25.5 138t-95.5 49q-75 0 -174 -137v-950q0 -20 -26 -30t-100 -10q-73 0 -99.5 10t-26.5 30v1672q0 20 26.5 31.5t99.5 11.5q74 0 100 -11.5t26 -31.5v-489
q32 31 61.5 54t59 38.5t60.5 23t66 7.5q54 0 107.5 -15.5t96 -53.5t69.5 -103t27 -164v-20z" />
    <glyph glyph-name="uniFB4F" unicode="&#x5d0;&#x200d;&#x5dc;" horiz-adv-x="1071" 
d="M447 975l177 -354q40 35 63.5 69.5t33 78t9.5 103.5v155q0 22 29.5 31.5t100.5 9.5q70 0 99.5 -9.5t29.5 -31.5v-146q0 -90 -12 -151t-38 -112.5t-78.5 -108.5t-124.5 -111l148 -297q14 -27 20.5 -42t6.5 -26q0 -20 -29.5 -29.5t-102.5 -9.5q-48 0 -78.5 2.5t-47.5 11
t-28 29.5l-392 787q-9 18 -20 25t-32 7h-81q-33 0 -53 19t-20 55v421q0 22 29.5 31.5t99.5 9.5q71 0 100.5 -9.5t29.5 -31.5v-289h14q62 0 92 -20.5t55 -66.5z" />
    <glyph glyph-name="uniFDF2" unicode="&#xfe8d;&#xfedf;&#xfee0;&#xfeea;" horiz-adv-x="2379" arabic-form="isolated" 
d="M1879 546q0 -54 -10.5 -111t-25.5 -106.5t-32 -87t-30 -52.5q-23 -20 -56.5 -34.5t-66.5 -14.5q-46 0 -98.5 5.5t-104.5 26.5t-98.5 62t-80.5 111h-6q-9 -44 -31.5 -87t-61.5 -77t-97 -55t-137 -21q-63 0 -116.5 17t-92.5 54.5t-61 97.5t-23 146h-7q-18 -29 -40 -55
t-45 -46t-45.5 -32t-40.5 -12q-42 0 -89 3.5t-92.5 12t-87.5 22t-74 33t-51 46t-19 60.5q0 31 19 74t46 86t58 80t55 56q14 10 55.5 32.5t98 50t121.5 57.5t127 57v10t1 10q1 15 6 27.5t14.5 25.5t23.5 27t32 34q25 27 41.5 43t26.5 16q16 0 16 -13q0 -55 0.5 -115t2.5 -106
q2 -85 4 -169.5t9 -170.5q3 -55 20 -91t43.5 -57t60 -29.5t70.5 -8.5t75.5 7.5t71 25t55 44.5t27.5 66q0 23 -4.5 59t-11.5 78t-15 86t-15 84.5t-11.5 74.5t-4.5 54q0 26 18.5 54t51.5 72q24 32 44.5 51.5t33.5 19.5q7 0 13.5 -4t7.5 -10q19 -154 36.5 -291.5t35.5 -274.5
q7 -43 31.5 -75t57 -53.5t68 -32t65.5 -10.5q22 0 42.5 5t37.5 19q0 22 -6.5 68.5t-16.5 105t-21.5 122.5t-21.5 122t-16.5 103.5t-6.5 66.5q0 18 18 51t42.5 65.5t49.5 56.5t39 24q6 0 12.5 -4.5t6.5 -8.5q7 -68 15.5 -138t17.5 -136.5t17.5 -127.5t15 -111t10.5 -86t4 -54
zM2242 199q-5 -12 -13 -17.5t-35 -5.5q-26 0 -36 6t-11 17q-1 27 0 67t-1 74q-3 80 -10.5 170.5t-16.5 184.5t-19 187.5t-18 178.5t-13.5 158t-5.5 126q0 28 21 56.5t56 64.5q25 27 48 46t39 19q7 0 12.5 -5t5.5 -10q2 -68 6.5 -150t10.5 -170.5t12.5 -179t12 -175t9 -159.5
t3.5 -132q0 -55 -5.5 -108t-13.5 -99.5t-18 -83.5t-20 -60zM1187 1402q2 5 9.5 9t28.5 4q29 0 29 -13q0 -17 -3 -41.5t-8 -40.5q5 -4 14.5 -8t20.5 -4q17 0 30.5 14t23 35t16 45.5t9.5 46.5q2 13 10.5 17.5t32.5 4.5q21 0 23 -15q0 -39 -7 -84t-24.5 -83t-48 -63.5
t-77.5 -25.5q-23 0 -39 7t-27 15q-9 -12 -20 -25t-26 -23t-35 -16.5t-47 -6.5q-15 0 -29 4t-25.5 15t-18.5 31.5t-7 52.5t11 64.5t23 48.5q4 7 12.5 9t21.5 2q6 0 14 -3t8 -11q0 -12 -7 -32t-7 -34q0 -12 6.5 -21.5t20.5 -9.5q21 0 36 15t26 36t18 44t12 40zM644 573
q0 35 -0.5 72t-0.5 87v79h-3q-5 -8 -13.5 -16t-17.5 -16t-18 -14.5t-16 -10.5q-32 -16 -71 -33t-79.5 -36t-80.5 -40.5t-75 -45.5q24 -21 53 -34t60 -20.5t61 -10t56 -1.5q43 0 77.5 11.5t67.5 28.5zM1254 1473q-2 -8 -8 -11t-24 -3q-22 0 -22 14q0 37 -2 82.5t-14 87.5
q-9 33 -27 57t-39 44q-6 6 -6 25q0 8 3 26.5t7.5 38t10 34t11.5 14.5q12 0 23 -11q54 -57 78 -127.5t24 -146.5q0 -29 -5 -65t-10 -59z" />
    <glyph glyph-name="uniFEF7" unicode="&#xfedf;&#xfe84;" horiz-adv-x="1141" arabic-form="isolated" 
d="M882 1522q9 9 14 9q13 0 13 -12q3 -24 9.5 -44.5t20 -42t36 -46.5t58.5 -59q16 -15 22.5 -26t6.5 -23q0 -15 -7 -36t-18 -41t-24.5 -36t-26.5 -21q3 -37 8.5 -87.5t11.5 -102.5t10 -99.5t4 -79.5q0 -62 -6 -134t-28.5 -148.5t-66.5 -154t-119 -149.5
q-75 -74 -172.5 -114.5t-217.5 -54.5q-38 -6 -83.5 -10t-90.5 -6.5t-86 -3.5t-72 -1q-23 0 -23 61q0 27 4.5 35.5t15.5 11.5q81 25 157.5 52t147 57t133.5 65t116 77q-9 29 -20 56t-27 57t-40 64.5t-60 77.5q-31 33 -71.5 71t-91.5 70l-19 -42q-9 -18 -19 -19q-11 -2 -21 6
q-68 45 -111 79t-67.5 63t-33.5 56.5t-9 58.5q0 24 5 50.5t13.5 53t20 50.5t24.5 43q19 31 40 31q13 0 39.5 -13.5t61 -37t74.5 -55t80 -67.5t77 -74t66 -75q55 -69 91.5 -130.5t59 -115t33.5 -99.5t15 -84q71 71 98.5 134.5t27.5 123.5q0 17 -3.5 50t-8.5 74t-11 88t-12 93
t-10.5 88.5t-6.5 75.5q-2 14 -1.5 27.5t2.5 24.5q-17 17 -28.5 48t-11.5 63q0 25 9.5 52t24.5 52.5t34.5 49.5t39.5 45zM337 1492q9 0 9 -7q0 -9 -2.5 -22.5t-11.5 -39.5q-9 -25 -17.5 -41.5t-15.5 -18.5q-102 -21 -159 -42t-86.5 -38.5t-39 -28t-16.5 -10.5
q-9 0 -11.5 18.5t-2.5 47.5q0 14 16.5 33.5t43.5 38.5q-36 15 -56 41.5t-20 61.5q0 43 19 82t49.5 69t69.5 47.5t79 17.5q38 0 63 -16.5t25 -45.5q0 -15 -6 -36t-18 -43q-5 -11 -15 -11q-6 0 -11 5t-13 11.5t-21.5 11.5t-36.5 5q-32 0 -55.5 -15.5t-23.5 -35.5
q0 -17 14 -29.5t33 -20t39.5 -11t34.5 -3.5q17 0 40.5 4t45.5 8.5t38 8.5t19 4z" />
    <glyph glyph-name="uniFEF8" unicode="&#xfee0;&#xfe84;" horiz-adv-x="1253" arabic-form="final" 
d="M1253 159q-65 0 -115.5 14.5t-88.5 46.5t-63 83t-38 125q-11 68 -15 126t-9 121h-5q-6 -41 -17 -91.5t-29 -105.5t-44 -112.5t-62 -112.5q-30 -45 -68.5 -80.5t-83 -62t-92.5 -45t-97 -30.5q-33 -8 -74.5 -14.5t-86 -11.5t-88.5 -7.5t-81 -2.5q-24 0 -24 64q0 24 5 32.5
t16 11.5q72 23 146.5 57.5t145 77.5t133.5 94t111 108q-41 113 -115 208.5t-195 186.5l-20 -46q-5 -14 -18 -17q-9 -2 -21 6q-67 47 -110 82t-67.5 64t-34 56t-9.5 59q0 26 5 54.5t14.5 56.5t22 53t27.5 45q13 15 30 17q12 3 23 -5q35 -21 81.5 -54t99 -76.5t106.5 -96.5
t104 -114q37 -44 65.5 -91.5t50 -96.5t36 -97.5t23.5 -93.5q24 37 51 88.5t49.5 118t37 148.5t14.5 181l-13 242q0 28 19.5 56.5t54.5 68.5q10 12 21 23t22 20t20.5 14.5t15.5 5.5q8 0 13.5 -4.5t5.5 -9.5q9 -192 26 -397.5t32 -407.5q7 -78 21 -129t36 -82t51.5 -43.5
t68.5 -12.5zM513 1585q9 0 9 -7q0 -9 -2.5 -22.5t-11.5 -39.5q-9 -25 -17.5 -41.5t-15.5 -18.5q-102 -21 -159 -42t-86.5 -38.5t-39 -28t-16.5 -10.5q-9 0 -11.5 18.5t-2.5 47.5q0 14 16.5 33.5t43.5 38.5q-36 15 -56 41.5t-20 61.5q0 43 19 82t49.5 69t69.5 47.5t79 17.5
q38 0 63 -16.5t25 -45.5q0 -15 -6 -36t-18 -43q-5 -11 -15 -11q-6 0 -11 5t-13 11.5t-21.5 11.5t-36.5 5q-32 0 -55.5 -15.5t-23.5 -35.5q0 -17 14 -29.5t33 -20t39.5 -11t34.5 -3.5q17 0 40.5 4t45.5 8.5t38 8.5t19 4z" />
    <glyph glyph-name="uniFEF9" unicode="&#xfedf;&#xfe88;" horiz-adv-x="1187" arabic-form="isolated" 
d="M928 1522q9 9 14 9q13 0 13 -12q3 -24 9 -44.5t19.5 -42t36.5 -46.5t59 -59q16 -15 22 -26t6 -23q0 -15 -7 -36t-17.5 -41t-24 -36t-26.5 -21q3 -37 8.5 -87.5t11 -102.5t10 -99.5t4.5 -79.5q0 -62 -6 -134t-28.5 -148.5t-66.5 -154t-119 -149.5q-75 -74 -173.5 -114.5
t-217.5 -54.5q-38 -6 -83 -10t-90 -6.5t-87 -3.5t-73 -1q-22 0 -22 61q0 27 4.5 35.5t14.5 11.5q81 25 158 52t147.5 57t133.5 65t116 77q-10 41 -21.5 80.5t-29.5 83t-45 93t-68 110.5q-35 50 -81 105t-103 103l-19 -43q-8 -18 -20 -20t-22 7q-69 44 -113 78.5t-69 64.5
t-34.5 57.5t-9.5 59.5q0 24 5 51t13.5 53.5t20.5 50.5t26 44q21 30 42 30q14 0 42.5 -17t66 -46.5t81 -69.5t86.5 -85t83.5 -93.5t71.5 -95.5q58 -84 96 -159.5t61 -141.5t34.5 -122.5t16.5 -102.5q69 72 97.5 135t28.5 123q0 17 -3.5 50t-8.5 74t-11.5 88t-12.5 93
t-10.5 88.5t-6.5 75.5q-1 14 -0.5 26.5t2.5 25.5q-17 17 -28.5 48t-11.5 63q0 25 9.5 52t24.5 52.5t34.5 49.5t39.5 45zM713 -254q9 0 9 -7q0 -9 -2.5 -22.5t-11.5 -39.5q-9 -25 -17.5 -41.5t-15.5 -18.5q-102 -21 -159 -42t-86.5 -38.5t-39 -28t-16.5 -10.5
q-9 0 -11.5 18.5t-2.5 47.5q0 14 16.5 33.5t43.5 38.5q-36 15 -56 41.5t-20 61.5q0 43 19 82t49.5 69t69.5 47.5t79 17.5q38 0 63 -16.5t25 -45.5q0 -15 -6 -36t-18 -43q-5 -11 -15 -11q-6 0 -11 5t-13 11.5t-21.5 11.5t-36.5 5q-32 0 -55.5 -15.5t-23.5 -35.5
q0 -17 14 -29.5t33 -20t39.5 -11t34.5 -3.5q17 0 40.5 4t45.5 8.5t38 8.5t19 4z" />
    <glyph glyph-name="uniFEFA" unicode="&#xfee0;&#xfe88;" horiz-adv-x="1281" arabic-form="final" 
d="M1281 160q-64 0 -115 14.5t-89 46t-63.5 82.5t-38.5 125q-11 68 -14.5 126t-8.5 121h-6q-6 -41 -17 -91.5t-29 -105.5t-44 -112.5t-62 -112.5q-30 -45 -68.5 -80.5t-82.5 -62t-92 -45t-97 -30.5q-33 -8 -75 -14.5t-87 -11.5t-89 -7.5t-81 -2.5q-22 0 -22 64
q0 24 4.5 32.5t14.5 11.5q72 23 147 57t145.5 77.5t133 94.5t110.5 108q-43 142 -122 263.5t-208 237.5l-20 -46q-6 -15 -19 -16q-10 -2 -22 5q-68 47 -111.5 83t-69 66.5t-35 59t-9.5 60.5q0 26 5 54.5t14.5 56t22.5 53t29 44.5q13 15 31 18q13 1 24 -5q37 -25 85.5 -61.5
t102.5 -84.5t110 -107t107 -129q40 -51 70 -108.5t52.5 -116t37.5 -116.5t24 -111q25 38 51.5 89.5t49 118t37 148t14.5 180.5q-3 61 -7 123t-6 119q0 28 19.5 57t54.5 67q10 12 21.5 23.5t22 20.5t20 14.5t15.5 5.5q8 0 13.5 -4.5t5.5 -9.5q9 -192 25.5 -397.5t33.5 -407.5
q6 -78 20 -129t36.5 -82t52.5 -43.5t68 -12.5zM713 -254q9 0 9 -7q0 -9 -2.5 -22.5t-11.5 -39.5q-9 -25 -17.5 -41.5t-15.5 -18.5q-102 -21 -159 -42t-86.5 -38.5t-39 -28t-16.5 -10.5q-9 0 -11.5 18.5t-2.5 47.5q0 14 16.5 33.5t43.5 38.5q-36 15 -56 41.5t-20 61.5
q0 43 19 82t49.5 69t69.5 47.5t79 17.5q38 0 63 -16.5t25 -45.5q0 -15 -6 -36t-18 -43q-5 -11 -15 -11q-6 0 -11 5t-13 11.5t-21.5 11.5t-36.5 5q-32 0 -55.5 -15.5t-23.5 -35.5q0 -17 14 -29.5t33 -20t39.5 -11t34.5 -3.5q17 0 40.5 4t45.5 8.5t38 8.5t19 4z" />
    <glyph glyph-name="f_b.liga" unicode="fb" horiz-adv-x="1730" 
d="M1655 492q0 -119 -25.5 -214t-75 -162t-121 -103t-162.5 -36q-45 0 -83.5 8.5t-74.5 27.5t-70 48t-70 70v-97q0 -11 -6 -18.5t-18.5 -12.5t-33.5 -7t-51 -2q-31 0 -51.5 2t-33 7t-17.5 12.5t-5 18.5v1158q-4 -6 -10 -9t-13 -3q-10 0 -28.5 4t-39 7.5t-42.5 5t-44 1.5
q-45 0 -75 -9t-47.5 -27.5t-24.5 -48.5t-7 -71v-82h148q10 0 17.5 -5t12.5 -16.5t7.5 -31.5t2.5 -49q0 -55 -10 -78.5t-29 -23.5h-149v-722q0 -10 -6 -17.5t-20.5 -12.5t-39 -7.5t-60.5 -2.5t-60.5 2.5t-39 7.5t-20 12.5t-5.5 17.5v722h-112q-19 0 -28.5 23.5t-9.5 78.5
q0 29 2.5 49t7 31.5t12 16.5t17.5 5h111v77q0 90 20 158.5t63.5 114t110 68t160.5 22.5q27 0 58 -2t59 -5.5t49.5 -8t33.5 -9t19 -10.5t10 -15q1 9 5.5 16t17 13t37 9.5t65.5 3.5q36 0 60.5 -3t38.5 -8.5t20 -13.5t6 -18v-493q36 34 69.5 58t68 39.5t70.5 22.5t76 7
q98 0 167 -39.5t112.5 -106.5t63.5 -156.5t20 -188.5zM1394 474q0 57 -8.5 110t-29 94t-54.5 65.5t-84 24.5q-25 0 -49.5 -7t-49.5 -24t-52.5 -44t-58.5 -67v-296q54 -68 102.5 -103.5t101.5 -35.5q49 0 83.5 25t56.5 65t32 91t10 102z" />
    <glyph glyph-name="f_f_b.liga" unicode="ffb" horiz-adv-x="2313" 
d="M1976 474q0 57 -8.5 110t-29 94t-54 65.5t-84.5 24.5q-25 0 -49 -7t-49.5 -24t-52.5 -44t-57 -67v-296q52 -68 101 -103.5t102 -35.5q48 0 82.5 25t56.5 65t32 91t10 102zM757 960v79q0 91 20.5 159t64 113.5t110 68t160.5 22.5q27 0 58 -2t58.5 -5.5t49.5 -8t34 -8.5
t18.5 -10.5t10.5 -17.5q1 9 5 16t17.5 13t38 9.5t64.5 3.5q37 0 61 -3t38.5 -8.5t20.5 -13.5t6 -18v-493q34 34 68 58t68 39.5t70 22.5t76 7q98 0 167.5 -39.5t113 -106.5t63.5 -156.5t20 -188.5q0 -119 -26 -214t-75 -162t-120.5 -103t-162.5 -36q-45 0 -84 8.5t-74.5 27.5
t-70 48t-70.5 70v-98q0 -11 -5.5 -18.5t-18 -12t-33.5 -6.5t-52 -2q-30 0 -50.5 2t-33 6.5t-17.5 12t-5 18.5v1162q-4 -6 -10 -9.5t-13 -3.5q-10 0 -29 4t-39 7.5t-42 5t-44 1.5q-45 0 -75 -8.5t-47.5 -27.5t-25 -48.5t-7.5 -70.5v-85h149q10 0 17 -5t12.5 -16.5t8 -31.5
t2.5 -49q0 -55 -10.5 -78.5t-28.5 -23.5h-150v-722q0 -10 -6 -17.5t-20 -12.5t-38.5 -7.5t-60.5 -2.5q-37 0 -61.5 2.5t-38.5 7.5t-20 12.5t-6 17.5v722h-331v-722q0 -10 -6 -17.5t-20 -12.5t-38.5 -7.5t-61.5 -2.5q-36 0 -60.5 2.5t-39 7.5t-20 12.5t-5.5 17.5v722h-112
q-19 0 -28.5 23.5t-9.5 78.5q0 29 2.5 49t7 31.5t12 16.5t17.5 5h111v66q0 90 18.5 158t57 113.5t97 68.5t138.5 23q44 0 79 -7.5t60 -16.5q12 -4 19 -10.5t11.5 -19t6.5 -32t2 -48.5q0 -49 -6.5 -69t-21.5 -20q-7 0 -16 3l-21 7t-28.5 7.5t-36.5 3.5q-58 0 -83 -36.5
t-25 -119.5v-71h331z" />
    <glyph glyph-name="f_h.liga" unicode="fh" horiz-adv-x="1730" 
d="M1609 34q0 -10 -6 -17.5t-20 -12.5t-38.5 -7.5t-60.5 -2.5q-37 0 -61 2.5t-39 7.5t-20.5 12.5t-5.5 17.5v509q0 65 -9 102t-27.5 63.5t-46.5 41t-66 14.5q-49 0 -97.5 -35t-103.5 -102v-593q0 -10 -6 -17.5t-20 -12.5t-38.5 -7.5t-60.5 -2.5q-37 0 -61.5 2.5t-38.5 7.5
t-20 12.5t-6 17.5v1158q-4 -6 -10 -9t-13 -3q-10 0 -28.5 4t-39 7.5t-42 5t-44.5 1.5q-45 0 -75 -9t-47.5 -27.5t-24.5 -48.5t-7 -71v-82h148q10 0 17.5 -5t12.5 -16.5t7.5 -31.5t2.5 -49q0 -55 -10 -78.5t-29 -23.5h-149v-722q0 -10 -6 -17.5t-20 -12.5t-38.5 -7.5
t-61.5 -2.5q-36 0 -60.5 2.5t-39 7.5t-20 12.5t-5.5 17.5v722h-112q-19 0 -28.5 23.5t-9.5 78.5q0 29 2.5 49t7 31.5t12 16.5t17.5 5h111v77q0 90 20 158.5t63.5 114t110 68t160.5 22.5q27 0 58 -2t59 -5.5t49.5 -8t33.5 -9t19 -10.5t10 -15q1 9 5.5 16t17 13t37 9.5
t65.5 3.5q36 0 60.5 -3t38.5 -8.5t20 -13.5t6 -18v-493q66 64 133.5 95.5t140.5 31.5q92 0 154 -30t100.5 -82t55.5 -121.5t17 -168.5v-547z" />
    <glyph glyph-name="f_f_h.liga" unicode="ffh" horiz-adv-x="2313" 
d="M757 1039q0 91 20.5 159t64 113.5t110 68t160.5 22.5q27 0 58 -2t58.5 -5.5t49.5 -8t34 -8.5t18.5 -10.5t10.5 -17.5q1 9 5 16t17.5 13t38 9.5t64.5 3.5q37 0 61 -3t38.5 -8.5t20.5 -13.5t6 -18v-493q65 64 132.5 95.5t140.5 31.5q91 0 153.5 -30t101 -82t55.5 -121.5
t17 -168.5v-547q0 -10 -6 -17.5t-20.5 -12.5t-38.5 -7.5t-60 -2.5q-37 0 -61.5 2.5t-38.5 7.5t-20 12.5t-6 17.5v509q0 65 -9 102t-27.5 63.5t-47 41t-66.5 14.5q-48 0 -97 -35t-102 -102v-593q0 -10 -6 -17.5t-20.5 -12.5t-38.5 -7.5t-61 -2.5t-61 2.5t-38.5 7.5
t-20.5 12.5t-6 17.5v1161q-4 -6 -10 -9.5t-13 -3.5q-9 0 -26.5 4t-39.5 7.5t-44 5t-44 1.5q-45 0 -75 -8.5t-47.5 -27.5t-25 -48.5t-7.5 -70.5v-85h149q10 0 17 -5t12.5 -16.5t8 -31.5t2.5 -49q0 -55 -10.5 -78.5t-28.5 -23.5h-150v-722q0 -10 -6 -17.5t-20 -12.5
t-38.5 -7.5t-60.5 -2.5q-37 0 -61.5 2.5t-38.5 7.5t-20 12.5t-6 17.5v722h-331v-722q0 -10 -6 -17.5t-20 -12.5t-39 -7.5t-61 -2.5t-60.5 2.5t-39 7.5t-20 12.5t-5.5 17.5v722h-112q-19 0 -28.5 23.5t-9.5 78.5q0 29 2.5 49t7 31.5t12 16.5t17.5 5h111v66q0 90 18.5 158
t57 113.5t97 68.5t138.5 23q44 0 79 -7.5t60 -16.5q12 -4 19 -10.5t11.5 -19t6.5 -32t2 -48.5q0 -49 -6.5 -69t-21.5 -20q-7 0 -16 3l-21 7t-28.5 7.5t-36.5 3.5q-58 0 -83 -36.5t-25 -119.5v-71h331v79z" />
    <glyph glyph-name="f_igrave.liga" unicode="f&#xec;" horiz-adv-x="1135" 
d="M1008 34q0 -10 -6 -17.5t-20 -12.5t-38.5 -7.5t-60.5 -2.5q-37 0 -61.5 2.5t-38.5 7.5t-20 12.5t-6 17.5v722h-331v-722q0 -10 -6 -17.5t-20 -12.5t-39 -7.5t-61 -2.5t-60.5 2.5t-39 7.5t-20 12.5t-5.5 17.5v722h-112q-19 0 -28.5 23.5t-9.5 78.5q0 29 2.5 49t7 31.5
t12 16.5t17.5 5h111v86q0 87 18.5 153t56 110.5t94.5 67.5t133 23q28 0 55.5 -4t45.5 -10.5t25.5 -13.5t11.5 -20t5.5 -32.5t1.5 -48.5q0 -48 -6 -67.5t-21 -19.5q-6 0 -12.5 2t-15.5 4.5t-21.5 5t-28.5 2.5q-46 0 -68.5 -34.5t-22.5 -111.5v-92h506q38 0 57 -16.5t19 -52.5
v-857zM1001 1131q5 -14 5 -24t-9.5 -16.5t-30.5 -9.5t-56 -3q-29 0 -47 2t-29.5 6t-18 10.5t-12.5 16.5l-141 232q-7 11 -5.5 21t14.5 17.5t40.5 12t73.5 4.5q34 0 55.5 -2t35 -6.5t20.5 -12.5t11 -20z" />
    <glyph glyph-name="f_iacute.liga" unicode="f&#xed;" horiz-adv-x="1135" 
d="M1008 34q0 -10 -6 -17.5t-20 -12.5t-38.5 -7.5t-60.5 -2.5q-37 0 -61.5 2.5t-38.5 7.5t-20 12.5t-6 17.5v722h-331v-722q0 -10 -6 -17.5t-20 -12.5t-38.5 -7.5t-61.5 -2.5q-36 0 -60.5 2.5t-39 7.5t-20 12.5t-5.5 17.5v722h-112q-19 0 -28.5 23.5t-9.5 78.5q0 29 2.5 49
t7 31.5t12 16.5t17.5 5h111v77q0 90 18.5 158t57 113.5t97 68.5t137.5 23q40 0 75.5 -6.5t53.5 -14t25 -14t11 -19t5.5 -32t1.5 -48.5q0 -49 -5.5 -68.5t-21.5 -19.5q-6 0 -15 3t-21 6.5t-27.5 7t-35.5 3.5q-56 0 -80.5 -36.5t-24.5 -119.5v-82h506q38 0 57 -16.5t19 -52.5
v-857zM913 1361q7 11 17 19t25 12.5t38 6.5t56 2q46 0 72.5 -4t38 -11.5t10.5 -17.5t-10 -21l-194 -232q-8 -10 -16 -16.5t-20.5 -10.5t-31.5 -6t-48 -2q-35 0 -55.5 3t-28.5 9.5t-6.5 16.5t10.5 23zM657 957z" />
    <glyph glyph-name="f_icircumflex.liga" unicode="f&#xee;" horiz-adv-x="1135" 
d="M1008 34q0 -10 -6 -17.5t-20 -12.5t-38.5 -7.5t-60.5 -2.5q-37 0 -61.5 2.5t-38.5 7.5t-20 12.5t-6 17.5v722h-331v-722q0 -10 -6 -17.5t-20 -12.5t-38.5 -7.5t-61.5 -2.5q-36 0 -60.5 2.5t-39 7.5t-20 12.5t-5.5 17.5v722h-112q-19 0 -28.5 23.5t-9.5 78.5q0 29 2.5 49
t7 31.5t12 16.5t17.5 5h111v86q0 87 18.5 153t56 110.5t94.5 67.5t133 23q28 0 56 -4.5t45 -10.5t24 -12.5t11 -18t5.5 -30t1.5 -47.5q0 -48 -6 -68t-21 -20q-6 0 -12.5 2t-15.5 5t-21.5 5t-28.5 2q-46 0 -67.5 -34.5t-21.5 -111.5v-97h506q38 0 57 -16.5t19 -52.5v-857z
M812 1112q-6 -12 -12.5 -19t-18 -10.5t-30.5 -4.5t-48 -1q-33 0 -52 3t-25 11t-1.5 23t17.5 38l132 214q5 10 14 16t23.5 9.5t36.5 5t53 1.5q32 0 53.5 -2t36 -6t23.5 -10t16 -14l138 -223q12 -20 16 -33t-3.5 -20.5t-27.5 -10t-55 -2.5q-31 0 -50.5 1t-31 4.5t-17 10.5
t-11.5 19l-88 149z" />
    <glyph glyph-name="f_itilde.liga" unicode="f&#x129;" horiz-adv-x="1153" 
d="M1027 34q0 -10 -6 -17.5t-20 -12.5t-38.5 -7.5t-61.5 -2.5q-36 0 -60.5 2.5t-38.5 7.5t-20 12.5t-6 17.5v722h-350v-722q0 -10 -6 -17.5t-20 -12.5t-39 -7.5t-61 -2.5t-60.5 2.5t-39 7.5t-20 12.5t-5.5 17.5v722h-112q-19 0 -28.5 23.5t-9.5 78.5q0 29 2.5 49t7 31.5
t12 16.5t17.5 5h111v102q0 82 18 145.5t54.5 106t91.5 64.5t128 22q15 0 30 -1t29 -3t26 -5.5t20.5 -7t14 -9t8.5 -16.5t4.5 -29.5t1.5 -47.5q0 -49 -5 -73t-18 -24q-5 0 -10.5 1.5t-13.5 4t-18.5 4t-26.5 1.5q-43 0 -63 -33t-20 -110v-92h525q38 0 57 -16.5t19 -52.5v-857z
M1201 1308q0 -61 -13 -107t-37.5 -78t-60 -48.5t-79.5 -16.5q-48 0 -81.5 17.5t-57.5 39t-43 39t-39 17.5q-25 0 -36 -23.5t-11 -60.5q0 -18 -15.5 -23.5t-57.5 -5.5q-35 0 -52.5 7.5t-17.5 33.5q0 117 49 183.5t141 66.5q31 0 55.5 -8.5t45 -21t37 -27t31 -27.5t27 -21.5
t24.5 -8.5q24 0 35.5 22t11.5 63q0 17 16.5 23t54.5 6t55.5 -8t17.5 -33z" />
    <glyph glyph-name="f_idieresis.liga" unicode="f&#xef;" horiz-adv-x="1153" 
d="M1027 34q0 -10 -6 -17.5t-20 -12.5t-38.5 -7.5t-60.5 -2.5q-37 0 -61.5 2.5t-38.5 7.5t-20 12.5t-6 17.5v722h-350v-722q0 -10 -6 -17.5t-20 -12.5t-39 -7.5t-61 -2.5t-60.5 2.5t-39 7.5t-20 12.5t-5.5 17.5v722h-112q-19 0 -28.5 23.5t-9.5 78.5q0 29 2.5 49t7 31.5
t12 16.5t17.5 5h111v102q0 82 18 145.5t54.5 106t91.5 64.5t128 22q15 0 30 -1t29 -3t26 -5.5t20.5 -7t14 -9t8.5 -16.5t4.5 -29.5t1.5 -47.5q0 -49 -5 -73t-18 -24q-5 0 -10.5 1.5t-13.5 4t-18.5 4t-26.5 1.5q-43 0 -63 -33t-20 -110v-92h525q38 0 57 -16.5t19 -52.5v-857z
M642 1226q0 37 6 61t20 37.5t36.5 18.5t54.5 5t54 -5t36 -18.5t20 -37.5t6 -61t-6 -61.5t-20 -38.5t-36 -19.5t-54 -5.5t-54.5 5.5t-36.5 19.5t-20 38.5t-6 61.5zM950 1226q0 37 6 61t20 37.5t36.5 18.5t54.5 5t54.5 -5t36 -18.5t19.5 -37.5t6 -61t-6 -61.5t-19.5 -38.5
t-36 -19.5t-54.5 -5.5t-54.5 5.5t-36.5 19.5t-20 38.5t-6 61.5z" />
    <glyph glyph-name="f_imacron.liga" unicode="f&#x12b;" horiz-adv-x="1153" 
d="M1027 34q0 -10 -6 -17.5t-20 -12.5t-38.5 -7.5t-61.5 -2.5q-36 0 -60.5 2.5t-38.5 7.5t-20 12.5t-6 17.5v722h-350v-722q0 -10 -6 -17.5t-20 -12.5t-39 -7.5t-61 -2.5t-60.5 2.5t-39 7.5t-20 12.5t-5.5 17.5v722h-112q-19 0 -28.5 23.5t-9.5 78.5q0 29 2.5 49t7 31.5
t12 16.5t17.5 5h111v102q0 82 18 145.5t54.5 106t91.5 64.5t128 22q15 0 30 -1t29 -3t26 -5.5t20.5 -7t14 -9t8.5 -16.5t4.5 -29.5t1.5 -47.5q0 -49 -5 -73t-18 -24q-5 0 -10.5 1.5t-13.5 4t-18.5 4t-26.5 1.5q-43 0 -63.5 -33t-19.5 -110v-92h525q38 0 57 -16.5t19 -52.5
v-857zM1128 1323q11 0 19 -4.5t13 -15.5t7 -28.5t2 -43.5t-2 -43t-7 -28t-13 -15.5t-19 -4.5h-450q-12 0 -20.5 4.5t-13.5 15.5t-7 28t-2 43q0 25 2 43t7 28.5t13.5 15.5t20.5 5h450z" />
    <glyph glyph-name="f_ibreve.liga" unicode="f&#x12d;" horiz-adv-x="1153" 
d="M1027 34q0 -10 -6 -17.5t-20 -12.5t-38.5 -7.5t-60.5 -2.5q-37 0 -61.5 2.5t-38.5 7.5t-20 12.5t-6 17.5v722h-350v-722q0 -10 -6 -17.5t-20 -12.5t-38.5 -7.5t-61.5 -2.5q-36 0 -60.5 2.5t-39 7.5t-20 12.5t-5.5 17.5v722h-112q-19 0 -28.5 23.5t-9.5 78.5q0 29 2.5 49
t7 31.5t12 16.5t17.5 5h111v102q0 82 18 145.5t54.5 106t91.5 64.5t128 22q15 0 30 -1t29 -3t26 -5.5t20.5 -7t14 -9t8.5 -16.5t4.5 -29.5t1.5 -47.5q0 -49 -5 -73t-18 -24q-5 0 -10.5 1.5t-13.5 4t-18.5 4t-26.5 1.5q-43 0 -63 -33t-20 -110v-92h525q38 0 57 -16.5
t19 -52.5v-857zM1011 1346q2 20 20.5 30t60.5 10q49 0 65.5 -7.5t16.5 -28.5q0 -67 -15.5 -118.5t-48.5 -87t-84 -54.5t-122 -19q-75 0 -127 18.5t-83.5 54.5t-46 87t-14.5 117q0 20 16 29t61 9q24 0 40.5 -2t26.5 -7t14 -12.5t5 -18.5q2 -27 8.5 -48.5t19 -37t32 -23.5
t48.5 -8q25 0 44 7t32.5 21.5t21 36.5t9.5 52z" />
    <glyph glyph-name="f_iogonek.liga" unicode="f&#x12f;" horiz-adv-x="1135" 
d="M1027 1226q0 -37 -6.5 -62.5t-22.5 -41t-43.5 -22t-68.5 -6.5t-69 6.5t-44.5 22t-23 41t-6.5 62.5q0 36 6.5 61t23 41t44.5 23t69 7t68.5 -7t43.5 -23t22.5 -41t6.5 -61zM1008 35q0 -18 -7.5 -33.5t-18.5 -26.5l-58 -59q-13 -12 -21 -22.5t-13 -19t-7 -16.5t-2 -17
q0 -21 15 -31t47 -10h83q10 0 17 -2.5t11 -9t6 -18.5t2 -30q0 -21 -2 -35t-6.5 -23.5t-12 -14.5t-18.5 -8q-35 -12 -75.5 -18t-94.5 -6q-49 0 -88.5 10t-67.5 30.5t-43 51t-15 71.5q0 21 3.5 40.5t12 38.5t23 38.5t36.5 41.5l43 43v756h-331v-722q0 -10 -6 -17.5t-20 -12.5
t-38.5 -7.5t-61.5 -2.5q-36 0 -60.5 2.5t-39 7.5t-20 12.5t-5.5 17.5v722h-112q-19 0 -28.5 23.5t-9.5 78.5q0 29 2.5 49t7 31.5t12 16.5t17.5 5h111v79q0 91 18.5 159t56.5 113.5t96 68t137 22.5q22 0 44.5 -2t42.5 -6t35 -9t20.5 -10.5t9 -12.5t6 -18t3.5 -28.5t1 -43.5
q0 -48 -5.5 -67.5t-21.5 -19.5q-6 0 -13.5 2t-18 5t-24.5 5.5t-35 2.5q-53 0 -77.5 -36t-23.5 -119v-85h506q38 0 57 -16.5t19 -52.5v-856z" />
    <glyph glyph-name="f_dotlessi.liga" unicode="f&#x131;" horiz-adv-x="1135" 
d="M1008 34q0 -10 -6 -17.5t-20 -12.5t-38.5 -7.5t-60.5 -2.5q-37 0 -61.5 2.5t-38.5 7.5t-20 12.5t-6 17.5v722h-331v-722q0 -10 -6 -17.5t-20 -12.5t-38.5 -7.5t-61.5 -2.5q-36 0 -60.5 2.5t-39 7.5t-20 12.5t-5.5 17.5v722h-112q-19 0 -28.5 23.5t-9.5 78.5q0 29 2.5 49
t7 31.5t12 16.5t17.5 5h111v77q0 90 18.5 158t57 113.5t97 68.5t137.5 23q40 0 75.5 -6.5t53.5 -14t25 -14t11 -19t5.5 -32t1.5 -48.5q0 -49 -5.5 -68.5t-21.5 -19.5q-6 0 -15 3t-21 6.5t-27.5 7t-35.5 3.5q-56 0 -80.5 -36.5t-24.5 -119.5v-82h506q38 0 57 -16.5t19 -52.5
v-857z" />
    <glyph glyph-name="f_f_igrave.liga" unicode="ff&#xec;" horiz-adv-x="1718" 
d="M1592 34q0 -10 -6 -17.5t-20.5 -12.5t-38.5 -7.5t-61 -2.5t-61 2.5t-38.5 7.5t-20.5 12.5t-6 17.5v722h-332v-722q0 -10 -6 -17.5t-20 -12.5t-38.5 -7.5t-60.5 -2.5q-37 0 -61.5 2.5t-38.5 7.5t-20 12.5t-6 17.5v722h-331v-722q0 -10 -6 -17.5t-20 -12.5t-39 -7.5
t-61 -2.5t-60.5 2.5t-39 7.5t-20 12.5t-5.5 17.5v722h-112q-19 0 -28.5 23.5t-9.5 78.5q0 29 2.5 49t7 31.5t12 16.5t17.5 5h111v66q0 90 18.5 158t57 113.5t97 68.5t138.5 23q44 0 79 -7t53.5 -14t25.5 -13.5t11.5 -19t6.5 -32t2 -48.5q0 -49 -6.5 -69t-21.5 -20
q-7 0 -16 3l-21 7t-28.5 7.5t-36.5 3.5q-58 0 -83 -36.5t-25 -119.5v-71h331v89q0 87 18.5 153t56.5 110.5t94.5 67t133.5 22.5q28 0 58 -4.5t45.5 -10t22.5 -12.5t11 -20t6 -32.5t2 -48.5q0 -48 -6 -67.5t-21 -19.5q-6 0 -12.5 2t-16 4.5t-21.5 4.5t-28 2q-46 0 -69 -34.5
t-23 -111.5v-94h507q38 0 57.5 -16.5t19.5 -52.5v-857zM1584 1131q5 -14 5 -24t-9.5 -16.5t-30.5 -9.5t-55 -3q-29 0 -48 2t-30 6t-17.5 10.5t-11.5 16.5l-142 232q-7 11 -6 21t14.5 17.5t41 12t73.5 4.5q33 0 55 -2t35.5 -6.5t20.5 -12.5t11 -20z" />
    <glyph glyph-name="f_f_iacute.liga" unicode="ff&#xed;" horiz-adv-x="1718" 
d="M1592 34q0 -10 -6 -17.5t-20.5 -12.5t-38.5 -7.5t-61 -2.5t-61 2.5t-38.5 7.5t-20.5 12.5t-6 17.5v722h-332v-722q0 -10 -6 -17.5t-20 -12.5t-38.5 -7.5t-60.5 -2.5q-37 0 -61.5 2.5t-38.5 7.5t-20 12.5t-6 17.5v722h-331v-722q0 -10 -6 -17.5t-20 -12.5t-38.5 -7.5
t-61.5 -2.5q-36 0 -60.5 2.5t-39 7.5t-20 12.5t-5.5 17.5v722h-112q-19 0 -28.5 23.5t-9.5 78.5q0 29 2.5 49t7 31.5t12 16.5t17.5 5h111v66q0 90 18.5 158t57 113.5t97 68.5t138.5 23q43 0 78.5 -7t54 -14t25.5 -13.5t11.5 -19t6.5 -32t2 -48.5q0 -49 -6.5 -69t-21.5 -20
q-7 0 -16 3l-21 7t-28.5 7.5t-36.5 3.5q-58 0 -83 -36.5t-25 -119.5v-71h331v79q0 91 19 159t57.5 113.5t97 68t138.5 22.5q42 0 77.5 -7t51.5 -13.5t23.5 -13.5t11.5 -19.5t5.5 -32t1.5 -48.5q0 -48 -5.5 -67.5t-21.5 -19.5q-6 0 -14.5 3t-21 6.5t-28 6.5t-35.5 3
q-56 0 -81 -36t-25 -119v-85h507q38 0 57.5 -16.5t19.5 -52.5v-857zM1496 1361q7 11 17 19t25 12.5t38 6.5t56 2q46 0 72.5 -4t38 -11.5t10.5 -17.5t-10 -21l-194 -232q-8 -10 -16 -16.5t-20.5 -10.5t-31.5 -6t-48 -2q-35 0 -55.5 3t-28.5 9.5t-6.5 16.5t10.5 23zM1240 957z
" />
    <glyph glyph-name="f_f_icircumflex.liga" unicode="ff&#xee;" horiz-adv-x="1718" 
d="M1592 34q0 -10 -6 -17.5t-20.5 -12.5t-38.5 -7.5t-61 -2.5t-61 2.5t-38.5 7.5t-20.5 12.5t-6 17.5v722h-332v-722q0 -10 -6 -17.5t-20 -12.5t-38.5 -7.5t-60.5 -2.5q-37 0 -61.5 2.5t-38.5 7.5t-20 12.5t-6 17.5v722h-331v-722q0 -10 -6 -17.5t-20 -12.5t-39 -7.5
t-61 -2.5t-60.5 2.5t-39 7.5t-20 12.5t-5.5 17.5v722h-112q-19 0 -28.5 23.5t-9.5 78.5q0 29 2.5 49t7 31.5t12 16.5t17.5 5h111v66q0 90 18.5 158t57 113.5t97 68.5t138.5 23q44 0 79 -7.5t53.5 -14t25.5 -13t11.5 -19t6.5 -32t2 -48.5q0 -49 -6.5 -69t-21.5 -20
q-7 0 -16 3l-21 7t-28.5 7.5t-36.5 3.5q-58 0 -83 -36.5t-25 -119.5v-71h331v89q0 87 18.5 153t56.5 110.5t94.5 67t133.5 22.5q28 0 58 -4.5t45 -10t22 -12t11 -18t5.5 -30.5t1.5 -48q0 -48 -5.5 -67.5t-21.5 -19.5q-6 0 -12.5 2t-16 4.5t-21.5 5t-28 2.5q-46 0 -68 -34.5
t-22 -111.5v-100h507q38 0 57.5 -16.5t19.5 -52.5v-857zM1395 1112q-6 -12 -12.5 -19t-18.5 -10.5t-30.5 -4.5t-47.5 -1q-34 0 -52 3t-24.5 11t-2 23t17.5 38l131 214q5 10 14 16t24 9.5t37 5t54 1.5q31 0 52.5 -2t36 -6t23.5 -10t15 -14l139 -223q11 -20 15 -33t-3 -20.5
t-26.5 -10t-54.5 -2.5q-33 0 -52 1t-30.5 4.5t-17 10.5t-11.5 19l-88 149z" />
    <glyph glyph-name="f_f_itilde.liga" unicode="ff&#x129;" horiz-adv-x="1736" 
d="M1610 34q0 -10 -6 -17.5t-20.5 -12.5t-38.5 -7.5t-61 -2.5t-61 2.5t-38 7.5t-20 12.5t-6 17.5v722h-351v-722q0 -10 -6 -17.5t-20 -12.5t-38.5 -7.5t-60.5 -2.5q-37 0 -61.5 2.5t-38.5 7.5t-20 12.5t-6 17.5v722h-331v-722q0 -10 -6 -17.5t-20 -12.5t-38.5 -7.5
t-61.5 -2.5q-36 0 -60.5 2.5t-39 7.5t-20 12.5t-5.5 17.5v722h-112q-19 0 -28.5 23.5t-9.5 78.5q0 29 2.5 49t7 31.5t12 16.5t17.5 5h111v66q0 90 18.5 158t57 113.5t97 68.5t138.5 23q44 0 79 -7.5t53.5 -14t25.5 -13t11.5 -19t6.5 -32t2 -48.5q0 -49 -6.5 -69t-21.5 -20
q-7 0 -16 3l-21 7t-28.5 7.5t-36.5 3.5q-58 0 -83 -36.5t-25 -119.5v-71h331v105q0 82 18 145t54.5 105.5t91.5 64.5t129 22q29 0 58 -4t42.5 -9.5t19 -11t8.5 -16.5t4 -30t1 -48q0 -48 -4.5 -72t-17.5 -24q-5 0 -10.5 1.5t-13.5 4t-18.5 4t-26.5 1.5q-43 0 -63.5 -33.5
t-20.5 -110.5v-94h525q38 0 57.5 -16.5t19.5 -52.5v-857zM1784 1308q0 -61 -13 -107t-37.5 -78t-60 -48.5t-79.5 -16.5q-49 0 -82 17.5t-57.5 39t-43 39t-38.5 17.5q-25 0 -35.5 -23.5t-10.5 -60.5q0 -18 -16 -23.5t-57 -5.5q-37 0 -54 7.5t-17 33.5q0 117 49 183.5
t141 66.5q31 0 55.5 -8.5t45 -21t37 -27t30.5 -27.5t26.5 -21.5t25.5 -8.5q23 0 35 22t12 63q0 17 16 23t55 6q38 0 55.5 -8t17.5 -33z" />
    <glyph glyph-name="f_f_idieresis.liga" unicode="ff&#xef;" horiz-adv-x="1736" 
d="M1610 34q0 -10 -6 -17.5t-20.5 -12.5t-38.5 -7.5t-61 -2.5t-61 2.5t-38 7.5t-20 12.5t-6 17.5v722h-351v-722q0 -10 -6 -17.5t-20 -12.5t-38.5 -7.5t-60.5 -2.5q-37 0 -61.5 2.5t-38.5 7.5t-20 12.5t-6 17.5v722h-331v-722q0 -10 -6 -17.5t-20 -12.5t-38.5 -7.5
t-61.5 -2.5q-36 0 -60.5 2.5t-39 7.5t-20 12.5t-5.5 17.5v722h-112q-19 0 -28.5 23.5t-9.5 78.5q0 29 2.5 49t7 31.5t12 16.5t17.5 5h111v66q0 90 18.5 158t57 113.5t97 68.5t138.5 23q44 0 79 -7.5t53.5 -14t25.5 -13t11.5 -19t6.5 -32t2 -48.5q0 -49 -6.5 -69t-21.5 -20
q-7 0 -16 3l-21 7t-28.5 7.5t-36.5 3.5q-58 0 -83 -36.5t-25 -119.5v-71h331v105q0 82 18 145t54.5 105.5t91.5 64.5t129 22q29 0 59 -4t42.5 -9.5t18 -11t8.5 -16.5t4 -30t1 -48q0 -48 -4.5 -72t-17.5 -24q-5 0 -10.5 1.5t-13.5 4t-18.5 4t-26.5 1.5q-43 0 -63.5 -34
t-20.5 -110v-94h525q38 0 57.5 -16.5t19.5 -52.5v-857zM1225 1226q0 37 6 61t20 37.5t36.5 18.5t54.5 5t54.5 -5t36 -18.5t19.5 -37.5t6 -61t-6 -61.5t-19.5 -38.5t-36 -19.5t-54.5 -5.5t-54.5 5.5t-36.5 19.5t-20 38.5t-6 61.5zM1533 1226q0 37 6.5 61t20 37.5t36 18.5
t54.5 5t54 -5t36 -18.5t20.5 -37.5t6.5 -61t-6.5 -61.5t-20.5 -38.5t-36 -19.5t-54 -5.5t-54.5 5.5t-36 19.5t-20 38.5t-6.5 61.5z" />
    <glyph glyph-name="f_f_imacron.liga" unicode="ff&#x12b;" horiz-adv-x="1736" 
d="M1610 34q0 -10 -6 -17.5t-20.5 -12.5t-38.5 -7.5t-61 -2.5t-61 2.5t-38 7.5t-20 12.5t-6 17.5v722h-351v-722q0 -10 -6 -17.5t-20 -12.5t-38.5 -7.5t-60.5 -2.5q-37 0 -61.5 2.5t-38.5 7.5t-20 12.5t-6 17.5v722h-331v-722q0 -10 -6 -17.5t-20 -12.5t-38.5 -7.5
t-61.5 -2.5q-36 0 -60.5 2.5t-39 7.5t-20 12.5t-5.5 17.5v722h-112q-19 0 -28.5 23.5t-9.5 78.5q0 29 2.5 49t7 31.5t12 16.5t17.5 5h111v66q0 90 18.5 158t57 113.5t97 68.5t138.5 23q44 0 79 -7.5t53.5 -14t25.5 -13t11.5 -19t6.5 -32t2 -48.5q0 -49 -6.5 -69t-21.5 -20
q-7 0 -16 3l-21 7t-28.5 7.5t-36.5 3.5q-58 0 -83 -36.5t-25 -119.5v-71h331v105q0 82 18 145t54.5 105.5t91.5 64.5t129 22q29 0 59 -4t42.5 -9.5t18 -11t8.5 -16.5t4 -30t1 -48q0 -48 -4.5 -72t-17.5 -24q-5 0 -10.5 1.5t-13.5 4t-18.5 4t-26.5 1.5q-43 0 -63.5 -33.5
t-20.5 -110.5v-94h525q38 0 57.5 -16.5t19.5 -52.5v-857zM1712 1323q11 0 18.5 -4.5t12.5 -15.5t7 -28.5t2 -43.5t-2 -43t-7 -28t-12.5 -15.5t-18.5 -4.5h-450q-13 0 -21.5 4.5t-13.5 15.5t-7 28t-2 43q0 50 9.5 71t34.5 21h450z" />
    <glyph glyph-name="f_f_ibreve.liga" unicode="ff&#x12d;" horiz-adv-x="1736" 
d="M1610 34q0 -10 -6 -17.5t-20.5 -12.5t-38.5 -7.5t-61 -2.5t-61 2.5t-38 7.5t-20 12.5t-6 17.5v722h-351v-722q0 -10 -6 -17.5t-20 -12.5t-38.5 -7.5t-60.5 -2.5q-37 0 -61.5 2.5t-38.5 7.5t-20 12.5t-6 17.5v722h-331v-722q0 -10 -6 -17.5t-20 -12.5t-38.5 -7.5
t-61.5 -2.5q-36 0 -60.5 2.5t-39 7.5t-20 12.5t-5.5 17.5v722h-112q-19 0 -28.5 23.5t-9.5 78.5q0 29 2.5 49t7 31.5t12 16.5t17.5 5h111v66q0 90 18.5 158t57 113.5t97 68.5t138.5 23q44 0 79 -7.5t53.5 -14t25.5 -13t11.5 -19t6.5 -32t2 -48.5q0 -49 -6.5 -69t-21.5 -20
q-7 0 -16 3l-21 7t-28.5 7.5t-36.5 3.5q-58 0 -83 -36.5t-25 -119.5v-71h331v105q0 82 18 145t54.5 105.5t91.5 64.5t129 22q29 0 59 -4t42.5 -9.5t18 -11t8.5 -16.5t4 -30t1 -48q0 -48 -4.5 -72t-17.5 -24q-5 0 -10.5 1.5t-13.5 4t-18.5 4t-26.5 1.5q-43 0 -63.5 -33.5
t-20.5 -110.5v-94h525q38 0 57.5 -16.5t19.5 -52.5v-857zM1594 1346q2 20 20.5 30t60.5 10q25 0 41 -2t24.5 -6t12 -11t3.5 -17q0 -67 -15.5 -118.5t-48.5 -87t-83.5 -54.5t-122.5 -19q-75 0 -126.5 18.5t-83.5 54.5t-46 87t-14 117q0 10 3.5 17.5t12.5 12t24 6.5t37 2
q49 0 67 -9t19 -31q2 -27 8.5 -48.5t19 -37t32 -23.5t47.5 -8q51 0 77.5 28.5t30.5 88.5z" />
    <glyph glyph-name="f_f_iogonek.liga" unicode="ff&#x12f;" horiz-adv-x="1718" 
d="M1611 1226q0 -37 -6.5 -62.5t-23 -41t-44 -22t-69.5 -6.5q-41 0 -68.5 6.5t-44 22t-23.5 41t-7 62.5q0 36 7 61t23.5 41t44 23t68.5 7q42 0 69.5 -7t44 -23t23 -41t6.5 -61zM1644 -260q0 -21 -2 -35t-6 -23.5t-11.5 -14.5t-18.5 -8q-35 -12 -75 -18t-95 -6
q-49 0 -88.5 10t-67.5 30.5t-43.5 51t-15.5 71.5q0 21 4 40.5t12.5 38.5t23.5 38.5t37 41.5l42 43v756h-332v-722q0 -10 -6 -17.5t-20 -12.5t-38.5 -7.5t-60.5 -2.5q-37 0 -61.5 2.5t-38.5 7.5t-20 12.5t-6 17.5v722h-331v-722q0 -10 -6 -17.5t-20 -12.5t-38.5 -7.5
t-61.5 -2.5q-36 0 -60.5 2.5t-39 7.5t-20 12.5t-5.5 17.5v722h-112q-19 0 -28.5 23.5t-9.5 78.5q0 29 2.5 49t7 31.5t12 16.5t17.5 5h111v66q0 90 18.5 158t57 113.5t97 68.5t138.5 23q44 0 79 -7.5t53.5 -14t25.5 -13t11.5 -19t6.5 -32t2 -48.5q0 -49 -6.5 -69t-21.5 -20
q-7 0 -16 3l-21 7t-28.5 7.5t-36.5 3.5q-58 0 -83 -36.5t-25 -119.5v-71h331v79q0 91 19 159t57 113.5t96 68t137 22.5q21 0 44.5 -2t43 -6t34.5 -9t20.5 -10.5t9 -12.5t6 -18t3.5 -28.5t1 -43.5q0 -48 -5.5 -67.5t-21.5 -19.5q-6 0 -13.5 2t-18 5t-25 5.5t-34.5 2.5
q-54 0 -78 -36t-24 -119v-85h507q38 0 57.5 -16.5t19.5 -52.5v-856q0 -13 -8 -31t-19 -29l-59 -59q-25 -25 -33.5 -42t-8.5 -33q0 -41 62 -41h83q10 0 17 -2.5t11 -9t5.5 -18.5t1.5 -30z" />
    <glyph glyph-name="f_f_dotlessi.liga" unicode="ff&#x131;" horiz-adv-x="1718" 
d="M1592 34q0 -10 -6 -17.5t-20.5 -12.5t-38.5 -7.5t-61 -2.5t-61 2.5t-38.5 7.5t-20.5 12.5t-6 17.5v722h-332v-722q0 -10 -6 -17.5t-20 -12.5t-38.5 -7.5t-60.5 -2.5q-37 0 -61.5 2.5t-38.5 7.5t-20 12.5t-6 17.5v722h-331v-722q0 -10 -6 -17.5t-20 -12.5t-38.5 -7.5
t-61.5 -2.5q-36 0 -60.5 2.5t-39 7.5t-20 12.5t-5.5 17.5v722h-112q-19 0 -28.5 23.5t-9.5 78.5q0 29 2.5 49t7 31.5t12 16.5t17.5 5h111v66q0 90 18.5 158t57 113.5t97 68.5t138.5 23q43 0 78.5 -7t54 -14t25.5 -13.5t11.5 -19t6.5 -32t2 -48.5q0 -49 -6.5 -69t-21.5 -20
q-7 0 -16 3l-21 7t-28.5 7.5t-36.5 3.5q-58 0 -83 -36.5t-25 -119.5v-71h331v79q0 91 19 159t57.5 113.5t97 68t138.5 22.5q42 0 77.5 -7t51.5 -13.5t23.5 -13.5t11.5 -19.5t5.5 -32t1.5 -48.5q0 -48 -5.5 -67.5t-21.5 -19.5q-6 0 -14.5 3t-21 6.5t-28 6.5t-35.5 3
q-56 0 -81 -36t-25 -119v-85h507q38 0 57.5 -16.5t19.5 -52.5v-857z" />
    <glyph glyph-name="f_j.liga" unicode="fj" horiz-adv-x="1135" 
d="M1027 1226q0 -37 -6.5 -62.5t-22.5 -41t-43.5 -22t-68.5 -6.5t-69 6.5t-44.5 22t-23 41t-6.5 62.5q0 36 6.5 61t23 41t44.5 23t69 7t68.5 -7t43.5 -23t22.5 -41t6.5 -61zM1008 0q0 -99 -15 -162.5t-49.5 -108.5t-92 -69.5t-142.5 -24.5q-22 0 -44.5 2t-42 6.5t-34 10
t-20.5 11t-9.5 13t-6 18.5t-3.5 25.5t-1 37.5q0 28 2 47.5t5.5 31t9 16t12.5 4.5q8 0 19.5 -4t27 -7.5t39.5 -3.5q21 0 39 7.5t30 24.5t18.5 44.5t6.5 89.5v747h-331v-722q0 -10 -6 -17.5t-20 -12.5t-38.5 -7.5t-61.5 -2.5q-36 0 -60.5 2.5t-39 7.5t-20 12.5t-5.5 17.5v722
h-112q-19 0 -28.5 23.5t-9.5 78.5q0 29 2.5 49t7 31.5t12 16.5t17.5 5h111v79q0 91 18.5 159t56.5 113.5t96 68t137 22.5q22 0 44.5 -2t42.5 -6t35 -9t20.5 -10.5t9 -12.5t6 -18t3.5 -28.5t1 -43.5q0 -48 -5.5 -67.5t-21.5 -19.5q-6 0 -13.5 2t-18 5t-24.5 5.5t-35 2.5
q-53 0 -77 -36t-24 -119v-85h506q38 0 57 -16.5t19 -52.5v-891z" />
    <glyph glyph-name="f_jcircumflex.liga" unicode="f&#x135;" horiz-adv-x="1135" 
d="M1008 -20q0 -79 -15 -142.5t-49.5 -108.5t-92 -69.5t-142.5 -24.5q-22 0 -44.5 2t-42 6.5t-34 10t-20.5 11t-9.5 13t-6 18.5t-3.5 26t-1 37q0 28 2 47.5t5.5 31t9 16t12.5 4.5q8 0 22 -4.5t28.5 -7.5t35.5 -3t39 7.5t30 24.5t18.5 44.5t6.5 69.5v767h-331v-722
q0 -10 -6 -17.5t-20 -12.5t-39 -7.5t-61 -2.5t-60.5 2.5t-39 7.5t-20 12.5t-5.5 17.5v722h-112q-19 0 -28.5 23.5t-9.5 78.5q0 29 2.5 49t7 31.5t12 16.5t17.5 5h111v86q0 87 18.5 153t56 110.5t94.5 67.5t133 23q28 0 57 -4.5t45 -10.5t23 -12.5t11 -18t5.5 -30t1.5 -47.5
q0 -48 -6 -68t-21 -20q-6 0 -12.5 2t-15.5 5t-21.5 5t-28.5 2q-46 0 -67.5 -34.5t-21.5 -111.5v-97h506q38 0 57 -16.5t19 -52.5v-911zM812 1112q-6 -12 -12.5 -19t-18 -10.5t-30.5 -4.5t-48 -1q-33 0 -52 3t-25 11t-1.5 23t17.5 38l132 214q5 10 14 16t23.5 9.5t36.5 5
t53 1.5q32 0 53.5 -2t36 -6t23.5 -10t16 -14l138 -223q12 -20 16 -33t-3.5 -20.5t-27.5 -10t-55 -2.5q-31 0 -50.5 1t-31 4.5t-17 10.5t-11.5 19l-88 149z" />
    <glyph glyph-name="f_f_j.liga" unicode="ffj" horiz-adv-x="1718" 
d="M1611 1226q0 -37 -6.5 -62.5t-23 -41t-44 -22t-69.5 -6.5q-41 0 -68.5 6.5t-44 22t-23.5 41t-7 62.5q0 36 7 61t23.5 41t44 23t68.5 7q42 0 69.5 -7t44 -23t23 -41t6.5 -61zM757 1039q0 91 19 159t57 113.5t96 68t137 22.5q22 0 45.5 -2t43 -6t34 -9t20 -10.5t9 -12.5
t6 -18t3.5 -28.5t1 -43.5q0 -48 -6 -67.5t-21 -19.5q-7 0 -14 2l-17.5 5t-24.5 5.5t-34 2.5q-54 0 -78.5 -36t-24.5 -119v-85h507q38 0 57.5 -16.5t19.5 -52.5v-911q0 -79 -15.5 -142.5t-50.5 -108.5t-92.5 -69.5t-140.5 -24.5q-24 0 -46 2t-42 6.5t-34.5 10t-20.5 11
t-9.5 13t-5.5 18.5t-3 26t-1 37q0 28 1.5 47.5t5.5 31t9.5 16t12.5 4.5t14 -2.5t16.5 -5t22.5 -5t33 -2.5q21 0 38.5 7.5t30 24.5t19 44.5t6.5 69.5v767h-332v-722q0 -10 -6 -17.5t-20 -12.5t-38.5 -7.5t-60.5 -2.5q-37 0 -61.5 2.5t-38.5 7.5t-20 12.5t-6 17.5v722h-331
v-722q0 -10 -6 -17.5t-20 -12.5t-38.5 -7.5t-61.5 -2.5q-36 0 -60.5 2.5t-39 7t-20 12t-5.5 17.5v723h-112q-19 0 -28.5 23.5t-9.5 78.5q0 29 2.5 49t7 31.5t12 16.5t17.5 5h111v66q0 90 18.5 158t57 113.5t97 68.5t138.5 23q44 0 79 -7.5t53.5 -14t25.5 -13t11.5 -19
t6.5 -32t2 -48.5q0 -49 -6.5 -69t-21.5 -20q-7 0 -16 3l-21 7t-28.5 7.5t-36.5 3.5q-58 0 -83 -36.5t-25 -119.5v-71h331v79z" />
    <glyph glyph-name="f_k.liga" unicode="fk" horiz-adv-x="1613" 
d="M883 1392q36 0 60.5 -3t38.5 -8.5t20 -13.5t6 -18v-783l266 355q7 12 17 21t26 14t41 7.5t62 2.5q38 0 63.5 -2.5t41 -7.5t22 -12.5t6.5 -18.5q0 -15 -8.5 -32t-22.5 -36l-262 -296l303 -467q11 -20 17 -34.5t6 -26.5q0 -11 -5.5 -18t-20 -12t-39.5 -7t-65 -2t-66 2
t-42.5 6.5t-25.5 12.5t-16 21l-298 470v-472q0 -10 -6 -17.5t-20 -12.5t-38.5 -7.5t-60.5 -2.5q-37 0 -61.5 2.5t-38.5 7.5t-20 12.5t-6 17.5v1158q-3 -6 -8.5 -9t-13.5 -3q-11 0 -29 4t-40 7.5t-43.5 5t-42.5 1.5q-45 0 -75 -9t-47.5 -27.5t-24.5 -48.5t-7 -71v-82h148
q10 0 17.5 -5t12.5 -16.5t7.5 -31.5t2.5 -49q0 -55 -10 -78.5t-29 -23.5h-149v-722q0 -10 -6 -17.5t-20 -12.5t-39 -7.5t-61 -2.5t-60.5 2.5t-39 7.5t-20 12.5t-5.5 17.5v722h-112q-19 0 -28.5 23.5t-9.5 78.5q0 29 2.5 49t7 31.5t12 16.5t17.5 5h111v77q0 90 20 158.5
t63.5 114t110 68t160.5 22.5q27 0 57.5 -2t59.5 -5.5t50 -8t33 -9t19 -10.5t10 -15q1 9 5.5 16t17 13t37 9.5t65.5 3.5z" />
    <glyph glyph-name="f_f_k.liga" unicode="ffk" horiz-adv-x="2197" 
d="M2169 33q0 -11 -5.5 -18t-20 -12t-39.5 -7t-65 -2q-41 0 -66.5 2t-42 6.5t-26 12.5t-15.5 21l-297 470v-472q0 -10 -6 -17.5t-20.5 -12.5t-38.5 -7.5t-61 -2.5t-61 2.5t-38.5 7.5t-20.5 12.5t-6 17.5v1161q-3 -6 -8.5 -9.5t-13.5 -3.5q-10 0 -28.5 4t-40.5 7.5t-43.5 5
t-42.5 1.5q-45 0 -75 -8.5t-47.5 -27.5t-25 -48.5t-7.5 -70.5v-85h149q10 0 17 -5t12.5 -16.5t8 -31.5t2.5 -49q0 -55 -10.5 -78.5t-28.5 -23.5h-150v-722q0 -10 -6 -17.5t-20 -12.5t-38.5 -7.5t-60.5 -2.5q-37 0 -61.5 2.5t-38.5 7.5t-20 12.5t-6 17.5v722h-331v-722
q0 -10 -6 -17.5t-20 -12.5t-39 -7.5t-61 -2.5t-60.5 2.5t-39 7.5t-20 12.5t-5.5 17.5v722h-112q-19 0 -28.5 23.5t-9.5 78.5q0 29 2.5 49t7 31.5t12 16.5t17.5 5h111v66q0 90 18.5 158t57 113.5t97 68.5t138.5 23q44 0 79 -7.5t53.5 -14t25.5 -13t11.5 -19t6.5 -32t2 -48.5
q0 -49 -6.5 -69t-21.5 -20q-7 0 -16 3l-21 7t-28.5 7.5t-36.5 3.5q-58 0 -83 -36.5t-25 -119.5v-71h331v77q0 90 20.5 159t64 114.5t110 68.5t160.5 23q27 0 58 -2t59.5 -5.5t49.5 -8t33 -8.5t19 -10t10 -18q1 9 5.5 16t17.5 13t37.5 9.5t64.5 3.5q37 0 61 -3t38.5 -8.5
t20.5 -13.5t6 -18v-783l264 355q8 12 18 21t26 14t41 7.5t63 2.5q37 0 62.5 -2.5t40.5 -7.5t21.5 -12.5t6.5 -18.5q0 -15 -7.5 -32t-22.5 -36l-262 -296l303 -467q12 -20 17.5 -34.5t5.5 -26.5z" />
    <glyph glyph-name="f_lacute.liga" unicode="f&#x13a;" horiz-adv-x="1135" 
d="M1008 34q0 -10 -6 -17.5t-20 -12.5t-38.5 -7.5t-60.5 -2.5q-37 0 -61.5 2.5t-38.5 7.5t-20 12.5t-6 17.5v1158q-3 -6 -8.5 -9t-13.5 -3q-11 0 -29 4t-40 7.5t-43.5 5t-42.5 1.5q-45 0 -75 -9t-47.5 -27.5t-24.5 -48.5t-7 -71v-82h148q10 0 17.5 -5t12.5 -16.5t7.5 -31.5
t2.5 -49q0 -55 -10 -78.5t-29 -23.5h-149v-722q0 -10 -6 -17.5t-20 -12.5t-38.5 -7.5t-61.5 -2.5q-36 0 -60.5 2.5t-39 7.5t-20 12.5t-5.5 17.5v722h-112q-19 0 -28.5 23.5t-9.5 78.5q0 29 2.5 49t7 31.5t12 16.5t17.5 5h111v77q0 90 20 158.5t63.5 114t110 68t160.5 22.5
q27 0 57.5 -2t59.5 -5.5t50 -8t33 -9t19 -10.5t10 -15q1 9 5.5 16t17 13t37 9.5t65.5 3.5q36 0 60.5 -3t38.5 -8.5t20 -13.5t6 -18v-1315zM978 1712q13 15 25.5 24t30 14t42.5 6.5t62 1.5q46 0 71.5 -6t35 -15.5t4.5 -21.5t-19 -25l-222 -200q-10 -9 -20.5 -15.5t-25.5 -11
t-36 -6.5t-52 -2q-34 0 -54.5 3t-29 9.5t-6.5 16.5t14 24zM681 1363z" />
    <glyph glyph-name="f_lcaron.liga" unicode="f&#x13e;" horiz-adv-x="1258" 
d="M1008 34q0 -10 -6 -17.5t-20 -12.5t-38.5 -7.5t-60.5 -2.5q-37 0 -61.5 2.5t-38.5 7.5t-20 12.5t-6 17.5v1158q-3 -6 -8.5 -9t-13.5 -3q-11 0 -29 4t-40 7.5t-43.5 5t-42.5 1.5q-45 0 -75 -9t-47.5 -27.5t-24.5 -48.5t-7 -71v-82h148q10 0 17.5 -5t12.5 -16.5t7.5 -31.5
t2.5 -49q0 -55 -10 -78.5t-29 -23.5h-149v-722q0 -10 -6 -17.5t-20 -12.5t-38.5 -7.5t-61.5 -2.5q-36 0 -60.5 2.5t-39 7.5t-20 12.5t-5.5 17.5v722h-112q-19 0 -28.5 23.5t-9.5 78.5q0 29 2.5 49t7 31.5t12 16.5t17.5 5h111v77q0 90 20 158.5t63.5 114t110 68t160.5 22.5
q27 0 57.5 -2t59.5 -5.5t50 -8t33 -9t19 -10.5t10 -15q1 9 5.5 16t17 13t37 9.5t65.5 3.5q36 0 60.5 -3t38.5 -8.5t20 -13.5t6 -18v-1315zM1141 1355q3 12 10.5 20.5t21.5 14.5t36 9t55 3q36 0 57.5 -3.5t31.5 -9.5t10.5 -15.5t-3.5 -21.5l-124 -314q-4 -11 -11 -17.5
t-20 -10t-32 -5t-48 -1.5q-23 0 -36.5 2.5t-20 7.5t-7.5 14t2 22zM958 988z" />
    <glyph glyph-name="f_uni013C.liga" unicode="f&#x13c;" horiz-adv-x="1135" 
d="M1008 34q0 -10 -6 -17.5t-20 -12.5t-38.5 -7.5t-60.5 -2.5q-37 0 -61.5 2.5t-38.5 7.5t-20 12.5t-6 17.5v1158q-3 -6 -8.5 -9t-13.5 -3q-11 0 -29 4t-40 7.5t-43.5 5t-42.5 1.5q-45 0 -75 -9t-47.5 -27.5t-24.5 -48.5t-7 -71v-82h148q10 0 17.5 -5t12.5 -16.5t7.5 -31.5
t2.5 -49q0 -55 -10 -78.5t-29 -23.5h-149v-722q0 -10 -6 -17.5t-20 -12.5t-38.5 -7.5t-61.5 -2.5q-36 0 -60.5 2.5t-39 7.5t-20 12.5t-5.5 17.5v722h-112q-19 0 -28.5 23.5t-9.5 78.5q0 29 2.5 49t7 31.5t12 16.5t17.5 5h111v77q0 90 20 158.5t63.5 114t110 68t160.5 22.5
q27 0 57.5 -2t59.5 -5.5t50 -8t33 -9t19 -10.5t10 -15q1 9 5.5 16t17 13t37 9.5t65.5 3.5q36 0 60.5 -3t38.5 -8.5t20 -13.5t6 -18v-1315zM754 -123q3 11 11 19.5t23.5 13.5t41 7t65.5 2t63 -4t33.5 -11.5t10 -18.5t-7.5 -25l-98 -190q-5 -10 -12 -16.5t-19.5 -11t-33 -6
t-52.5 -1.5t-50.5 2.5t-27 9t-8.5 16.5t4 24z" />
    <glyph glyph-name="f_t.liga" unicode="ft" horiz-adv-x="1302" 
d="M426 756v-722q0 -10 -6 -17.5t-20 -12.5t-39 -7.5t-61 -2.5t-60.5 2.5t-39 7.5t-20 12.5t-5.5 17.5v722h-112q-19 0 -28.5 23.5t-9.5 78.5q0 29 2.5 49t7 31.5t12 16.5t17.5 5h111v75q0 91 18 159.5t56 114t97 68.5t140 23q39 0 76.5 -7t55 -14t24.5 -13.5t11 -19
t5.5 -32t1.5 -48.5t-2 -46.5t-6 -27t-9 -13t-11 -3.5t-14.5 3.5t-21 7.5t-29 7.5t-39.5 3.5q-27 0 -46.5 -8.5t-32 -27t-19 -48t-6.5 -72.5v-82h338v199q0 10 6 18t20 13.5t38.5 8t60.5 2.5q37 0 61 -2.5t38.5 -8t20.5 -13.5t6 -18v-199h194q10 0 17.5 -5t12.5 -16.5
t7.5 -31.5t2.5 -49q0 -55 -10 -78.5t-29 -23.5h-195v-419q0 -73 22.5 -109.5t82.5 -36.5q20 0 36 3.5t28 8t21 8t16 3.5q6 0 11 -3.5t8.5 -14t6 -28.5t2.5 -46q0 -44 -5.5 -68t-15 -33t-26.5 -16.5t-40.5 -13t-50.5 -8.5t-55 -3q-76 0 -131 19t-91 58.5t-53 99.5t-17 142
v457h-336z" />
    <glyph glyph-name="f_uni021B.liga" unicode="f&#x21b;" horiz-adv-x="1302" 
d="M426 756v-722q0 -10 -6 -17.5t-20 -12.5t-39 -7.5t-61 -2.5t-60.5 2.5t-39 7.5t-20 12.5t-5.5 17.5v722h-112q-19 0 -28.5 23.5t-9.5 78.5q0 29 2.5 49t7 31.5t12 16.5t17.5 5h111v75q0 91 18 159.5t56 114t97 68.5t140 23q39 0 76.5 -7t55 -14t24.5 -13.5t11 -19
t5.5 -32t1.5 -48.5t-2 -46.5t-6 -27t-9 -13t-11 -3.5t-14.5 3.5t-21 7.5t-29 7.5t-39.5 3.5q-27 0 -46.5 -8.5t-32 -27t-19 -48t-6.5 -72.5v-82h338v199q0 10 6 18t20 13.5t38.5 8t60.5 2.5q37 0 61 -2.5t38.5 -8t20.5 -13.5t6 -18v-199h194q10 0 17.5 -5t12.5 -16.5
t7.5 -31.5t2.5 -49q0 -55 -10 -78.5t-29 -23.5h-195v-419q0 -73 22.5 -109.5t82.5 -36.5q20 0 36 3.5t28 8t21 8t16 3.5q6 0 11 -3.5t8.5 -14t6 -28.5t2.5 -46q0 -44 -5.5 -68t-15 -33t-26.5 -16.5t-40.5 -13t-50.5 -8.5t-55 -3q-76 0 -131 19t-91 58.5t-53 99.5t-17 142
v457h-336zM871 -123q3 11 11 19.5t23.5 13.5t41 7t65.5 2t63 -4t33.5 -11.5t10 -18.5t-7.5 -25l-98 -190q-5 -10 -12 -16.5t-19.5 -11t-33 -6t-52.5 -1.5t-50.5 2.5t-27 9t-8.5 16.5t4 24z" />
    <glyph glyph-name="f_tcaron.liga" unicode="f&#x165;" horiz-adv-x="1349" 
d="M426 756v-722q0 -10 -6 -17.5t-20 -12.5t-39 -7.5t-61 -2.5t-60.5 2.5t-39 7.5t-20 12.5t-5.5 17.5v722h-112q-19 0 -28.5 23.5t-9.5 78.5q0 29 2.5 49t7 31.5t12 16.5t17.5 5h111v75q0 91 18 159.5t56 114t97 68.5t140 23q39 0 76.5 -7t55 -14t24.5 -13.5t11 -19
t5.5 -32t1.5 -48.5t-2 -46.5t-6 -27t-9 -13t-11 -3.5t-14.5 3.5t-21 7.5t-29 7.5t-39.5 3.5q-27 0 -46.5 -8.5t-32 -27t-19 -48t-6.5 -72.5v-82h338v199q0 10 6 18t20 13.5t38.5 8t60.5 2.5q37 0 61 -2.5t38.5 -8t20.5 -13.5t6 -18v-199h194q10 0 17.5 -5t12.5 -16.5
t7.5 -31.5t2.5 -49q0 -55 -10 -78.5t-29 -23.5h-195v-419q0 -73 22.5 -109.5t82.5 -36.5q20 0 36 3.5t28 8t21 8t16 3.5q6 0 11 -3.5t8.5 -14t6 -28.5t2.5 -46q0 -44 -5.5 -68t-15 -33t-26.5 -16.5t-40.5 -13t-50.5 -8.5t-55 -3q-76 0 -131 19t-91 58.5t-53 99.5t-17 142
v457h-336zM1191 1475q3 12 10.5 20.5t21.5 14.5t36 9t55 3q36 0 57.5 -3.5t31.5 -9.5t10.5 -15.5t-3.5 -21.5l-124 -314q-4 -11 -11 -17.5t-20 -10t-32 -5t-48 -1.5q-23 0 -36.5 2.5t-20 7.5t-7.5 14t2 22zM1008 1108z" />
    <glyph glyph-name="f_f_t.liga" unicode="fft" horiz-adv-x="1886" 
d="M1830 122q0 -44 -5.5 -68t-15 -33t-26.5 -16.5t-40.5 -13t-51 -8.5t-55.5 -3q-75 0 -130 19t-91 58.5t-53 99.5t-17 142v457h-337v-722q0 -10 -6 -17.5t-20 -12.5t-38.5 -7.5t-60.5 -2.5q-37 0 -61.5 2.5t-38.5 7.5t-20 12.5t-6 17.5v722h-331v-722q0 -10 -6 -17.5
t-20 -12.5t-39 -7.5t-61 -2.5t-60.5 2.5t-39 7.5t-20 12.5t-5.5 17.5v722h-112q-19 0 -28.5 23.5t-9.5 78.5q0 29 2.5 49t7 31.5t12 16.5t17.5 5h111v64q0 91 18 159.5t56.5 114t98 68.5t140.5 23q41 0 77 -7.5t54 -14t25 -13t11.5 -19t6.5 -32t2 -48.5t-2 -46.5t-6 -27
t-9 -13t-11 -3.5q-7 0 -15.5 3.5t-21 7.5t-29.5 7.5t-40 3.5q-27 0 -46.5 -8.5t-32.5 -27t-19 -48t-6 -72.5v-71h331v77q0 91 18.5 159.5t56.5 114.5t97 68.5t141 22.5q38 0 73 -6.5t54.5 -13.5t26.5 -14t11 -19t5.5 -32t1.5 -49q0 -28 -2 -45.5t-5.5 -27t-9 -12.5t-11.5 -3
t-14.5 3t-20.5 7t-28.5 7t-38.5 3q-28 0 -47.5 -8t-32.5 -26.5t-19 -48.5t-6 -72v-85h338v199q0 10 5.5 18t20 13.5t39 8t60.5 2.5q37 0 61.5 -2.5t38.5 -8t20 -13.5t6 -18v-199h194q10 0 17.5 -5t12.5 -16.5t7.5 -31.5t2.5 -49q0 -55 -10 -78.5t-29 -23.5h-195v-419
q0 -73 22.5 -109.5t82.5 -36.5q20 0 36 3.5t28.5 8t21 8t15.5 3.5q6 0 11 -3.5t9 -14t6 -28.5t2 -46z" />
    <glyph glyph-name="t_f.liga" unicode="tf" horiz-adv-x="1296" 
d="M823 960v75q0 91 18.5 159.5t57 114t97.5 68.5t141 23q38 0 73.5 -6.5t55 -14t27 -14t11.5 -19t6 -32t2 -48.5t-2 -46.5t-6 -27t-8.5 -13t-10.5 -3.5q-7 0 -24.5 6.5t-38 11t-42.5 4.5q-28 0 -48 -8.5t-32.5 -27t-19 -48t-6.5 -72.5v-82h163q9 0 16.5 -5t13 -16.5
t8 -31.5t2.5 -49q0 -55 -10.5 -78.5t-28.5 -23.5h-164v-722q0 -10 -6 -17.5t-20 -12.5t-38.5 -7.5t-61.5 -2.5q-36 0 -60.5 2.5t-39 7.5t-20 12.5t-5.5 17.5v722h-403v-419q0 -73 23 -109.5t82 -36.5q20 0 36 3.5t28.5 8t21 8t15.5 3.5q6 0 11.5 -3.5t8.5 -14t5.5 -28.5
t2.5 -46q0 -44 -5.5 -67.5t-14.5 -33t-26.5 -17t-41 -13t-51 -8.5t-55.5 -3q-75 0 -130 19t-91 58.5t-53 99.5t-17 142v457h-107q-19 0 -29 23.5t-10 78.5q0 29 2.5 49t7.5 31.5t12.5 16.5t17.5 5h106v199q0 10 5.5 18t20 13.5t39 8t60.5 2.5q37 0 61.5 -2.5t38.5 -8
t20 -13.5t6 -18v-199h403z" />
    <glyph glyph-name="t_i.liga" unicode="ti" horiz-adv-x="1199" 
d="M997 960q42 0 58.5 -18t16.5 -52v-856q0 -10 -6 -17.5t-20 -12.5t-38.5 -7.5t-60.5 -2.5q-37 0 -61.5 2.5t-38.5 7.5t-20 12.5t-6 17.5v722h-401v-419q0 -73 23 -109.5t82 -36.5q20 0 36 3.5t28.5 8t21 8t15.5 3.5q6 0 11.5 -3.5t8.5 -14t5.5 -28.5t2.5 -46
q0 -44 -5 -66.5t-14 -33t-27 -18t-41.5 -13t-51 -8.5t-55.5 -3q-75 0 -130 19t-91 58.5t-53 99.5t-17 142v457h-107q-19 0 -29 23.5t-10 78.5q0 29 2.5 49t7.5 31.5t12.5 16.5t17.5 5h106v199q0 10 5.5 18t20 13.5t39 8t60.5 2.5q37 0 61.5 -2.5t38.5 -8t20 -13.5t6 -18
v-199h577zM1092 1228q0 -76 -31 -105t-115 -29q-85 0 -114.5 28t-29.5 101q0 76 30.5 105.5t115.5 29.5q84 0 114 -28.5t30 -101.5zM695 960z" />
    <glyph glyph-name="t_igrave.liga" unicode="t&#xec;" horiz-adv-x="1199" 
d="M997 960q42 0 58.5 -18t16.5 -52v-856q0 -10 -6 -17.5t-20 -12.5t-38.5 -7.5t-60.5 -2.5q-37 0 -61.5 2.5t-38.5 7.5t-20 12.5t-6 17.5v722h-401v-419q0 -73 23 -109.5t82 -36.5q20 0 36 3.5t28.5 8t21 8t15.5 3.5q6 0 11.5 -3.5t8.5 -14t5.5 -28.5t2.5 -46
q0 -44 -5 -66.5t-14 -33t-27 -18t-41.5 -13t-51 -8.5t-55.5 -3q-75 0 -130 19t-91 58.5t-53 99.5t-17 142v457h-107q-19 0 -29 23.5t-10 78.5q0 29 2.5 49t7.5 31.5t12.5 16.5t17.5 5h106v199q0 10 5.5 18t20 13.5t39 8t60.5 2.5q37 0 61.5 -2.5t38.5 -8t20 -13.5t6 -18
v-199h577zM1041 1135q9 -13 11 -23t-6.5 -16.5t-28 -9.5t-54.5 -3q-29 0 -48 2t-32 6t-21.5 10.5t-16.5 16.5l-193 232q-10 11 -11 21t10.5 17.5t38.5 11.5t73 4q33 0 55.5 -2t37.5 -6.5t24.5 -12.5t17.5 -19zM539 960z" />
    <glyph glyph-name="t_iacute.liga" unicode="t&#xed;" horiz-adv-x="1199" 
d="M997 960q42 0 58.5 -18t16.5 -52v-856q0 -10 -6 -17.5t-20 -12.5t-38.5 -7.5t-60.5 -2.5q-37 0 -61.5 2.5t-38.5 7.5t-20 12.5t-6 17.5v722h-401v-419q0 -73 23 -109.5t82 -36.5q20 0 36 3.5t28.5 8t21 8t15.5 3.5q6 0 11.5 -3.5t8.5 -14t5.5 -28.5t2.5 -46
q0 -44 -5 -66.5t-14 -33t-27 -18t-41.5 -13t-51 -8.5t-55.5 -3q-75 0 -130 19t-91 58.5t-53 99.5t-17 142v457h-107q-19 0 -29 23.5t-10 78.5q0 29 2.5 49t7.5 31.5t12.5 16.5t17.5 5h106v199q0 10 5.5 18t20 13.5t39 8t60.5 2.5q37 0 61.5 -2.5t38.5 -8t20 -13.5t6 -18
v-199h577zM975 1364q7 11 17 19t25 12.5t38 6.5t56 2q46 0 72.5 -4t38 -11.5t10.5 -17.5t-10 -21l-194 -232q-8 -10 -16 -16.5t-20.5 -10.5t-31.5 -6t-48 -2q-35 0 -55.5 3t-28.5 9.5t-6.5 16.5t10.5 23zM719 960z" />
    <glyph glyph-name="t_icircumflex.liga" unicode="t&#xee;" horiz-adv-x="1199" 
d="M997 960q42 0 58.5 -18t16.5 -52v-856q0 -10 -6 -17.5t-20 -12.5t-38.5 -7.5t-60.5 -2.5q-37 0 -61.5 2.5t-38.5 7.5t-20 12.5t-6 17.5v722h-401v-419q0 -73 23 -109.5t82 -36.5q20 0 36 3.5t28.5 8t21 8t15.5 3.5q6 0 11.5 -3.5t8.5 -14t5.5 -28.5t2.5 -46
q0 -44 -5 -66.5t-14 -33t-27 -18t-41.5 -13t-51 -8.5t-55.5 -3q-75 0 -130 19t-91 58.5t-53 99.5t-17 142v457h-107q-19 0 -29 23.5t-10 78.5q0 29 2.5 49t7.5 31.5t12.5 16.5t17.5 5h106v199q0 10 5.5 18t20 13.5t39 8t60.5 2.5q37 0 61.5 -2.5t38.5 -8t20 -13.5t6 -18
v-199h577zM828 1118q-7 -11 -14 -18t-19 -10.5t-30.5 -5t-48.5 -1.5q-40 0 -61.5 3.5t-28.5 11t-1.5 20.5t19.5 31l158 223q6 10 15.5 15.5t25 9.5t37.5 5.5t53 1.5q32 0 53.5 -2t36 -6t23.5 -10t16 -14l157 -223q14 -19 19 -31.5t-2 -20t-28.5 -11t-60.5 -3.5
q-32 0 -50.5 1.5t-30 5.5t-17.5 10.5t-13 17.5l-104 150zM521 960z" />
    <glyph glyph-name="t_idieresis.liga" unicode="t&#xef;" horiz-adv-x="1199" 
d="M997 960q42 0 58.5 -18t16.5 -52v-856q0 -10 -6 -17.5t-20 -12.5t-38.5 -7.5t-60.5 -2.5q-37 0 -61.5 2.5t-38.5 7.5t-20 12.5t-6 17.5v722h-401v-419q0 -73 23 -109.5t82 -36.5q20 0 36 3.5t28.5 8t21 8t15.5 3.5q6 0 11.5 -3.5t8.5 -14t5.5 -28.5t2.5 -46
q0 -44 -5 -66.5t-14 -33t-27 -18t-41.5 -13t-51 -8.5t-55.5 -3q-75 0 -130 19t-91 58.5t-53 99.5t-17 142v457h-107q-19 0 -29 23.5t-10 78.5q0 29 2.5 49t7.5 31.5t12.5 16.5t17.5 5h106v199q0 10 5.5 18t20 13.5t39 8t60.5 2.5q37 0 61.5 -2.5t38.5 -8t20 -13.5t6 -18
v-199h577zM893 1227q0 -70 -26 -97.5t-96 -27.5q-71 0 -96 26.5t-25 93.5q0 71 26 98.5t95 27.5q72 0 97 -26.5t25 -94.5zM1229 1227q0 -70 -26 -97.5t-96 -27.5q-71 0 -95.5 26.5t-24.5 93.5q0 71 25.5 98.5t95.5 27.5q71 0 96 -26.5t25 -94.5zM548 960z" />
    <glyph glyph-name="t_imacron.liga" unicode="t&#x12b;" horiz-adv-x="1199" 
d="M997 960q42 0 58.5 -18t16.5 -52v-856q0 -10 -6 -17.5t-20 -12.5t-38.5 -7.5t-60.5 -2.5q-37 0 -61.5 2.5t-38.5 7.5t-20 12.5t-6 17.5v722h-401v-419q0 -73 23 -109.5t82 -36.5q20 0 36 3.5t28.5 8t21 8t15.5 3.5q6 0 11.5 -3.5t8.5 -14t5.5 -28.5t2.5 -46
q0 -44 -5 -66.5t-14 -33t-27 -18t-41.5 -13t-51 -8.5t-55.5 -3q-75 0 -130 19t-91 58.5t-53 99.5t-17 142v457h-107q-19 0 -29 23.5t-10 78.5q0 29 2.5 49t7.5 31.5t12.5 16.5t17.5 5h106v199q0 10 5.5 18t20 13.5t39 8t60.5 2.5q37 0 61.5 -2.5t38.5 -8t20 -13.5t6 -18
v-199h577zM1193 1323q11 0 19 -4.5t12.5 -15.5t7 -28.5t2.5 -43.5t-2.5 -43t-7 -28t-12.5 -15.5t-19 -4.5h-510q-12 0 -20.5 4.5t-13.5 15.5t-7.5 28t-2.5 43q0 25 2.5 43t7.5 28.5t13.5 15.5t20.5 5h510zM537 960z" />
    <glyph glyph-name="t_itilde.liga" unicode="t&#x129;" horiz-adv-x="1199" 
d="M997 960q42 0 58.5 -18t16.5 -52v-856q0 -10 -6 -17.5t-20 -12.5t-38.5 -7.5t-60.5 -2.5q-37 0 -61.5 2.5t-38.5 7.5t-20 12.5t-6 17.5v722h-401v-419q0 -73 23 -109.5t82 -36.5q20 0 36 3.5t28.5 8t21 8t15.5 3.5q6 0 11.5 -3.5t8.5 -14t5.5 -28.5t2.5 -46
q0 -44 -5 -66.5t-14 -33t-27 -18t-41.5 -13t-51 -8.5t-55.5 -3q-75 0 -130 19t-91 58.5t-53 99.5t-17 142v457h-107q-19 0 -29 23.5t-10 78.5q0 29 2.5 49t7.5 31.5t12.5 16.5t17.5 5h106v199q0 10 5.5 18t20 13.5t39 8t60.5 2.5q37 0 61.5 -2.5t38.5 -8t20 -13.5t6 -18
v-199h577zM1283 1336q0 -121 -57.5 -185.5t-159.5 -64.5q-39 0 -69 8t-54 21t-43.5 27.5t-37.5 27t-35.5 21t-37.5 8.5q-33 0 -47 -23.5t-14 -61.5q0 -9 -3.5 -14.5t-12 -8.5t-24 -4t-39.5 -1q-21 0 -35.5 1.5t-23 6t-12.5 12.5t-4 21q0 116 56 182.5t160 66.5
q57 0 96.5 -17.5t70 -39t56.5 -39t54 -17.5q30 0 46 21.5t16 63.5q0 17 15 22.5t61 5.5q45 0 61.5 -7.5t16.5 -32.5zM473 960z" />
    <glyph glyph-name="t_ibreve.liga" unicode="t&#x12d;" horiz-adv-x="1199" 
d="M997 960q42 0 58.5 -18t16.5 -52v-856q0 -10 -6 -17.5t-20 -12.5t-38.5 -7.5t-60.5 -2.5q-37 0 -61.5 2.5t-38.5 7.5t-20 12.5t-6 17.5v722h-401v-419q0 -73 23 -109.5t82 -36.5q20 0 36 3.5t28.5 8t21 8t15.5 3.5q6 0 11.5 -3.5t8.5 -14t5.5 -28.5t2.5 -46
q0 -44 -5 -66.5t-14 -33t-27 -18t-41.5 -13t-51 -8.5t-55.5 -3q-75 0 -130 19t-91 58.5t-53 99.5t-17 142v457h-107q-19 0 -29 23.5t-10 78.5q0 29 2.5 49t7.5 31.5t12.5 16.5t17.5 5h106v199q0 10 5.5 18t20 13.5t39 8t60.5 2.5q37 0 61.5 -2.5t38.5 -8t20 -13.5t6 -18
v-199h577zM1060 1361q2 19 19.5 29t61.5 10q26 0 43 -2t26.5 -6t13 -11t3.5 -16q0 -67 -17.5 -119t-53 -87.5t-91 -54t-130.5 -18.5q-78 0 -133 18.5t-90 54t-51.5 87t-16.5 117.5q0 20 17 28.5t65 8.5q25 0 41.5 -2t26.5 -7t14 -12.5t5 -17.5q3 -27 10 -48.5t21.5 -37
t36.5 -23.5t54 -8q29 0 51 7t38 21.5t25 36t11 52.5zM542 960z" />
    <glyph glyph-name="t_iogonek.liga" unicode="t&#x12f;" horiz-adv-x="1199" 
d="M993 960q45 0 62 -18t17 -57v-850q0 -13 -7.5 -31t-18.5 -29l-58 -59q-13 -12 -21.5 -22.5t-13 -19t-6.5 -16.5t-2 -17q0 -21 15 -31t47 -10h83q10 0 16.5 -2.5t11 -9t6 -18.5t1.5 -30q0 -21 -2 -35t-6 -23.5t-11.5 -14.5t-18.5 -8q-34 -12 -75 -18t-95 -6
q-49 0 -88.5 10t-67.5 30.5t-43 51t-15 71.5q0 21 3.5 40.5t12 38.5t23 38.5t36.5 41.5l43 43v756h-401v-419q0 -73 23 -109.5t82 -36.5q20 0 36 3.5t28.5 8t21 8t15.5 3.5q6 0 11.5 -3.5t8.5 -14t5.5 -28.5t2.5 -46q0 -44 -5 -67t-14 -33t-27 -17.5t-41.5 -13t-51 -8.5
t-55.5 -3q-75 0 -130 19t-91 58.5t-53 99.5t-17 142v457h-107q-19 0 -29 23.5t-10 78.5q0 29 2.5 49t7.5 31.5t12.5 16.5t17.5 5h106v199q0 10 5.5 18t20 13.5t39 8t60.5 2.5q37 0 61.5 -2.5t38.5 -8t20 -13.5t6 -18v-199h573zM1091 1226q0 -37 -6.5 -62.5t-23 -41
t-44.5 -22t-70 -6.5t-70 6.5t-45 22t-23.5 41t-6.5 62.5q0 36 6.5 61t23.5 41t45 23t70 7t70 -7t44.5 -23t23 -41t6.5 -61z" />
    <glyph glyph-name="t_dotlessi.liga" unicode="t&#x131;" horiz-adv-x="1199" 
d="M997 960q42 0 58.5 -18t16.5 -52v-856q0 -10 -6 -17.5t-20 -12.5t-38.5 -7.5t-60.5 -2.5q-37 0 -61.5 2.5t-38.5 7.5t-20 12.5t-6 17.5v722h-401v-419q0 -73 23 -109.5t82 -36.5q20 0 36 3.5t28.5 8t21 8t15.5 3.5q6 0 11.5 -3.5t8.5 -14t5.5 -28.5t2.5 -46
q0 -44 -5 -66.5t-14 -33t-27 -18t-41.5 -13t-51 -8.5t-55.5 -3q-75 0 -130 19t-91 58.5t-53 99.5t-17 142v457h-107q-19 0 -29 23.5t-10 78.5q0 29 2.5 49t7.5 31.5t12.5 16.5t17.5 5h106v199q0 10 5.5 18t20 13.5t39 8t60.5 2.5q37 0 61.5 -2.5t38.5 -8t20 -13.5t6 -18
v-199h577z" />
    <glyph glyph-name="t_t.liga" unicode="tt" horiz-adv-x="1344" 
d="M1288 122q0 -44 -5.5 -67t-15 -33t-27 -17t-40.5 -13t-50.5 -9t-54.5 -3q-76 0 -131 19t-91 58.5t-53 99.5t-17 142v457h-383v-419q0 -73 23 -109.5t82 -36.5q20 0 36 3.5t28.5 8t21 8t15.5 3.5q6 0 11.5 -3.5t8.5 -14t5.5 -28.5t2.5 -46t-1.5 -44.5t-4 -27.5t-6 -18.5
t-11.5 -14t-25 -13.5t-40 -12.5t-50.5 -8.5t-55.5 -3q-75 0 -130 19t-91 58.5t-53 99.5t-17 142v457h-107q-19 0 -29 23.5t-10 78.5q0 29 2.5 49t7.5 31.5t12.5 16.5t17.5 5h106v199q0 10 5.5 18t20 13.5t39 8t60.5 2.5q37 0 61.5 -2.5t38.5 -8t20 -13.5t6 -18v-199h383v247
q0 10 5.5 18t20 13t39 8t60.5 3q37 0 61.5 -3t38.5 -8t20 -13t6 -18v-247h194q10 0 17 -5t12.5 -16.5t8 -31.5t2.5 -49q0 -55 -10.5 -78.5t-28.5 -23.5h-195v-419q0 -73 22.5 -109.5t82.5 -36.5q20 0 36 3.5t28 8t21 8t16 3.5q6 0 11 -3.5t8.5 -14t6 -28.5t2.5 -46z" />
    <glyph glyph-name="t_t_f.liga" unicode="ttf" horiz-adv-x="1930" 
d="M1946 1266q0 -29 -2 -46.5t-5.5 -27t-9 -13t-11.5 -3.5q-7 0 -15.5 3.5t-21 7.5t-29.5 7.5t-39 3.5q-27 0 -47 -8.5t-32.5 -27t-19 -48t-6.5 -72.5v-82h163q9 0 16.5 -5t12.5 -16.5t7.5 -31.5t2.5 -49q0 -55 -10 -78.5t-29 -23.5h-163v-722q0 -10 -6 -17.5t-20 -12.5
t-38.5 -7.5t-60.5 -2.5q-37 0 -61.5 2.5t-38.5 7.5t-20 12.5t-6 17.5v722h-403v-419q0 -73 22.5 -109.5t82.5 -36.5q20 0 36 3.5t28 8t21 8t16 3.5q6 0 11 -3.5t8.5 -14t6 -28.5t2.5 -46q0 -44 -5 -66t-14.5 -33t-27.5 -18.5t-41 -13t-50.5 -8.5t-54.5 -3q-76 0 -131 19
t-91 58.5t-53 99.5t-17 142v457h-383v-419q0 -73 23 -109.5t82 -36.5q20 0 36 3.5t28.5 8t21 8t15.5 3.5q6 0 11.5 -3.5t8.5 -14t5.5 -28.5t2.5 -46q0 -44 -5 -66.5t-14 -33t-27.5 -18t-41.5 -13t-50.5 -8.5t-55.5 -3q-75 0 -130 19t-91 58.5t-53 99.5t-17 142v457h-107
q-19 0 -29 23.5t-10 78.5q0 29 2.5 49t7.5 31.5t12.5 16.5t17.5 5h106v199q0 10 5.5 18t20 13.5t39 8t60.5 2.5q37 0 61.5 -2.5t38.5 -8t20 -13.5t6 -18v-199h383v247q0 10 5.5 18t20 13t39 8t60.5 3q37 0 61.5 -3t38.5 -8t20 -13t6 -18v-247h403v75q0 91 18.5 159.5t57 114
t97.5 68.5t141 23q37 0 73 -7t55.5 -14t27 -13.5t12 -19t6 -32t1.5 -48.5z" />
    <glyph glyph-name="t_t_i.liga" unicode="tti" horiz-adv-x="1832" 
d="M420 756v-419q0 -73 23 -109.5t82 -36.5q20 0 36 3.5t28.5 8t21 8t15.5 3.5q6 0 11.5 -3.5t8.5 -14t5.5 -28.5t2.5 -46q0 -44 -5.5 -68t-15 -33t-26.5 -16.5t-40.5 -13t-51 -8.5t-55.5 -3q-75 0 -130 19t-91 58.5t-53 99.5t-17 142v457h-107q-19 0 -29 23.5t-10 78.5
q0 29 2.5 49t7.5 31.5t12.5 16.5t17.5 5h106v199q0 10 5.5 18t20 13.5t39 8t60.5 2.5q37 0 61.5 -2.5t38.5 -8t20 -13.5t6 -18v-199h383v247q0 10 5.5 18t20 13t39 8t60.5 3q37 0 61.5 -3t38.5 -8t20 -13t6 -18v-247h576q42 0 59 -18t17 -52v-856q0 -10 -6 -17.5t-20 -12.5
t-38.5 -7.5t-60.5 -2.5q-37 0 -61.5 2.5t-38.5 7.5t-20 12.5t-6 17.5v722h-401v-419q0 -73 22.5 -109.5t82.5 -36.5q20 0 36 3.5t28 8t21 8t16 3.5q6 0 11 -3.5t8.5 -14t6 -28.5t2.5 -46q0 -44 -5.5 -68t-15 -33t-26.5 -16.5t-40.5 -13t-51 -8.5t-54.5 -3q-76 0 -131 19
t-91 58.5t-53 99.5t-17 142v457h-383zM1726 1228q0 -76 -31 -105t-115 -29q-85 0 -114.5 28t-29.5 101q0 76 30.5 105.5t115.5 29.5q84 0 114 -28.5t30 -101.5zM1329 960z" />
    <glyph glyph-name="t_t_igrave.liga" unicode="tt&#xec;" horiz-adv-x="1832" 
d="M420 756v-419q0 -73 23 -109.5t82 -36.5q20 0 36 3.5t28.5 8t21 8t15.5 3.5q6 0 11.5 -3.5t8.5 -14t5.5 -28.5t2.5 -46q0 -44 -5.5 -68t-15 -33t-26.5 -16.5t-40.5 -13t-51 -8.5t-55.5 -3q-75 0 -130 19t-91 58.5t-53 99.5t-17 142v457h-107q-19 0 -29 23.5t-10 78.5
q0 29 2.5 49t7.5 31.5t12.5 16.5t17.5 5h106v199q0 10 5.5 18t20 13.5t39 8t60.5 2.5q37 0 61.5 -2.5t38.5 -8t20 -13.5t6 -18v-199h383v247q0 10 5.5 18t20 13t39 8t60.5 3q37 0 61.5 -3t38.5 -8t20 -13t6 -18v-247h576q42 0 59 -18t17 -52v-856q0 -10 -6 -17.5t-20 -12.5
t-38.5 -7.5t-60.5 -2.5q-37 0 -61.5 2.5t-38.5 7.5t-20 12.5t-6 17.5v722h-401v-419q0 -73 22.5 -109.5t82.5 -36.5q20 0 36 3.5t28 8t21 8t16 3.5q6 0 11 -3.5t8.5 -14t6 -28.5t2.5 -46q0 -44 -5.5 -68t-15 -33t-26.5 -16.5t-40.5 -13t-51 -8.5t-54.5 -3q-76 0 -131 19
t-91 58.5t-53 99.5t-17 142v457h-383zM1676 1135q9 -13 11 -23t-6.5 -16.5t-28 -9.5t-54.5 -3q-29 0 -48 2t-32 6t-21.5 10.5t-16.5 16.5l-193 232q-10 11 -11 21t10.5 17.5t38.5 11.5t73 4q33 0 55.5 -2t37.5 -6.5t24.5 -12.5t17.5 -19zM1174 960z" />
    <glyph glyph-name="t_t_iacute.liga" unicode="tt&#xed;" horiz-adv-x="1832" 
d="M420 756v-419q0 -73 23 -109.5t82 -36.5q20 0 36 3.5t28.5 8t21 8t15.5 3.5q6 0 11.5 -3.5t8.5 -14t5.5 -28.5t2.5 -46q0 -44 -5.5 -68t-15 -33t-26.5 -16.5t-40.5 -13t-51 -8.5t-55.5 -3q-75 0 -130 19t-91 58.5t-53 99.5t-17 142v457h-107q-19 0 -29 23.5t-10 78.5
q0 29 2.5 49t7.5 31.5t12.5 16.5t17.5 5h106v199q0 10 5.5 18t20 13.5t39 8t60.5 2.5q37 0 61.5 -2.5t38.5 -8t20 -13.5t6 -18v-199h383v247q0 10 5.5 18t20 13t39 8t60.5 3q37 0 61.5 -3t38.5 -8t20 -13t6 -18v-247h576q42 0 59 -18t17 -52v-856q0 -10 -6 -17.5t-20 -12.5
t-38.5 -7.5t-60.5 -2.5q-37 0 -61.5 2.5t-38.5 7.5t-20 12.5t-6 17.5v722h-401v-419q0 -73 22.5 -109.5t82.5 -36.5q20 0 36 3.5t28 8t21 8t16 3.5q6 0 11 -3.5t8.5 -14t6 -28.5t2.5 -46q0 -44 -5.5 -68t-15 -33t-26.5 -16.5t-40.5 -13t-51 -8.5t-54.5 -3q-76 0 -131 19
t-91 58.5t-53 99.5t-17 142v457h-383zM1609 1364q7 11 17 19t25 12.5t38 6.5t56 2q46 0 72.5 -4t38 -11.5t10.5 -17.5t-10 -21l-194 -232q-8 -10 -16 -16.5t-20.5 -10.5t-31.5 -6t-48 -2q-35 0 -55.5 3t-28.5 9.5t-6.5 16.5t10.5 23zM1353 960z" />
    <glyph glyph-name="t_t_icircumflex.liga" unicode="tt&#xee;" horiz-adv-x="1832" 
d="M420 756v-419q0 -73 23 -109.5t82 -36.5q20 0 36 3.5t28.5 8t21 8t15.5 3.5q6 0 11.5 -3.5t8.5 -14t5.5 -28.5t2.5 -46q0 -44 -5.5 -68t-15 -33t-26.5 -16.5t-40.5 -13t-51 -8.5t-55.5 -3q-75 0 -130 19t-91 58.5t-53 99.5t-17 142v457h-107q-19 0 -29 23.5t-10 78.5
q0 29 2.5 49t7.5 31.5t12.5 16.5t17.5 5h106v199q0 10 5.5 18t20 13.5t39 8t60.5 2.5q37 0 61.5 -2.5t38.5 -8t20 -13.5t6 -18v-199h383v247q0 10 5.5 18t20 13t39 8t60.5 3q37 0 61.5 -3t38.5 -8t20 -13t6 -18v-247h576q42 0 59 -18t17 -52v-856q0 -10 -6 -17.5t-20 -12.5
t-38.5 -7.5t-60.5 -2.5q-37 0 -61.5 2.5t-38.5 7.5t-20 12.5t-6 17.5v722h-401v-419q0 -73 22.5 -109.5t82.5 -36.5q20 0 36 3.5t28 8t21 8t16 3.5q6 0 11 -3.5t8.5 -14t6 -28.5t2.5 -46q0 -44 -5.5 -68t-15 -33t-26.5 -16.5t-40.5 -13t-51 -8.5t-54.5 -3q-76 0 -131 19
t-91 58.5t-53 99.5t-17 142v457h-383zM1461 1118q-7 -11 -14 -18t-19 -10.5t-30.5 -5t-48.5 -1.5q-40 0 -61.5 3.5t-28.5 11t-1.5 20.5t19.5 31l158 223q6 10 15.5 15.5t25 9.5t37.5 5.5t53 1.5q32 0 53.5 -2t36 -6t23.5 -10t16 -14l157 -223q14 -19 19 -31.5t-2 -20
t-28.5 -11t-60.5 -3.5q-32 0 -50.5 1.5t-30 5.5t-17.5 10.5t-13 17.5l-104 150zM1154 960z" />
    <glyph glyph-name="t_t_idieresis.liga" unicode="tt&#xef;" horiz-adv-x="1832" 
d="M420 756v-419q0 -73 23 -109.5t82 -36.5q20 0 36 3.5t28.5 8t21 8t15.5 3.5q6 0 11.5 -3.5t8.5 -14t5.5 -28.5t2.5 -46q0 -44 -5.5 -68t-15 -33t-26.5 -16.5t-40.5 -13t-51 -8.5t-55.5 -3q-75 0 -130 19t-91 58.5t-53 99.5t-17 142v457h-107q-19 0 -29 23.5t-10 78.5
q0 29 2.5 49t7.5 31.5t12.5 16.5t17.5 5h106v199q0 10 5.5 18t20 13.5t39 8t60.5 2.5q37 0 61.5 -2.5t38.5 -8t20 -13.5t6 -18v-199h383v247q0 10 5.5 18t20 13t39 8t60.5 3q37 0 61.5 -3t38.5 -8t20 -13t6 -18v-247h576q42 0 59 -18t17 -52v-856q0 -10 -6 -17.5t-20 -12.5
t-38.5 -7.5t-60.5 -2.5q-37 0 -61.5 2.5t-38.5 7.5t-20 12.5t-6 17.5v722h-401v-419q0 -73 22.5 -109.5t82.5 -36.5q20 0 36 3.5t28 8t21 8t16 3.5q6 0 11 -3.5t8.5 -14t6 -28.5t2.5 -46q0 -44 -5.5 -68t-15 -33t-26.5 -16.5t-40.5 -13t-51 -8.5t-54.5 -3q-76 0 -131 19
t-91 58.5t-53 99.5t-17 142v457h-383zM1527 1227q0 -70 -26 -97.5t-96 -27.5q-71 0 -96 26.5t-25 93.5q0 71 26 98.5t95 27.5q72 0 97 -26.5t25 -94.5zM1863 1227q0 -70 -26 -97.5t-96 -27.5q-71 0 -95.5 26.5t-24.5 93.5q0 71 25.5 98.5t95.5 27.5q71 0 96 -26.5t25 -94.5z
M1182 960z" />
    <glyph glyph-name="t_t_imacron.liga" unicode="tt&#x12b;" horiz-adv-x="1832" 
d="M420 756v-419q0 -73 23 -109.5t82 -36.5q20 0 36 3.5t28.5 8t21 8t15.5 3.5q6 0 11.5 -3.5t8.5 -14t5.5 -28.5t2.5 -46q0 -44 -5.5 -68t-15 -33t-26.5 -16.5t-40.5 -13t-51 -8.5t-55.5 -3q-75 0 -130 19t-91 58.5t-53 99.5t-17 142v457h-107q-19 0 -29 23.5t-10 78.5
q0 29 2.5 49t7.5 31.5t12.5 16.5t17.5 5h106v199q0 10 5.5 18t20 13.5t39 8t60.5 2.5q37 0 61.5 -2.5t38.5 -8t20 -13.5t6 -18v-199h383v247q0 10 5.5 18t20 13t39 8t60.5 3q37 0 61.5 -3t38.5 -8t20 -13t6 -18v-247h576q42 0 59 -18t17 -52v-856q0 -10 -6 -17.5t-20 -12.5
t-38.5 -7.5t-60.5 -2.5q-37 0 -61.5 2.5t-38.5 7.5t-20 12.5t-6 17.5v722h-401v-419q0 -73 22.5 -109.5t82.5 -36.5q20 0 36 3.5t28 8t21 8t16 3.5q6 0 11 -3.5t8.5 -14t6 -28.5t2.5 -46q0 -44 -5.5 -68t-15 -33t-26.5 -16.5t-40.5 -13t-51 -8.5t-54.5 -3q-76 0 -131 19
t-91 58.5t-53 99.5t-17 142v457h-383zM1827 1323q11 0 19 -4.5t12.5 -15.5t7 -28.5t2.5 -43.5t-2.5 -43t-7 -28t-12.5 -15.5t-19 -4.5h-510q-12 0 -20.5 4.5t-13.5 15.5t-7.5 28t-2.5 43q0 25 2.5 43t7.5 28.5t13.5 15.5t20.5 5h510zM1171 960z" />
    <glyph glyph-name="t_t_itilde.liga" unicode="tt&#x129;" horiz-adv-x="1832" 
d="M420 756v-419q0 -73 23 -109.5t82 -36.5q20 0 36 3.5t28.5 8t21 8t15.5 3.5q6 0 11.5 -3.5t8.5 -14t5.5 -28.5t2.5 -46q0 -44 -5.5 -68t-15 -33t-26.5 -16.5t-40.5 -13t-51 -8.5t-55.5 -3q-75 0 -130 19t-91 58.5t-53 99.5t-17 142v457h-107q-19 0 -29 23.5t-10 78.5
q0 29 2.5 49t7.5 31.5t12.5 16.5t17.5 5h106v199q0 10 5.5 18t20 13.5t39 8t60.5 2.5q37 0 61.5 -2.5t38.5 -8t20 -13.5t6 -18v-199h383v247q0 10 5.5 18t20 13t39 8t60.5 3q37 0 61.5 -3t38.5 -8t20 -13t6 -18v-247h576q42 0 59 -18t17 -52v-856q0 -10 -6 -17.5t-20 -12.5
t-38.5 -7.5t-60.5 -2.5q-37 0 -61.5 2.5t-38.5 7.5t-20 12.5t-6 17.5v722h-401v-419q0 -73 22.5 -109.5t82.5 -36.5q20 0 36 3.5t28 8t21 8t16 3.5q6 0 11 -3.5t8.5 -14t6 -28.5t2.5 -46q0 -44 -5.5 -68t-15 -33t-26.5 -16.5t-40.5 -13t-51 -8.5t-54.5 -3q-76 0 -131 19
t-91 58.5t-53 99.5t-17 142v457h-383zM1917 1336q0 -121 -57.5 -185.5t-159.5 -64.5q-39 0 -69 8t-54 21t-43.5 27.5t-37.5 27t-35.5 21t-37.5 8.5q-33 0 -47 -23.5t-14 -61.5q0 -9 -3.5 -14.5t-12 -8.5t-24 -4t-39.5 -1q-21 0 -35.5 1.5t-23 6t-12.5 12.5t-4 21
q0 116 56 182.5t160 66.5q57 0 96.5 -17.5t70 -39t56.5 -39t54 -17.5q30 0 46 21.5t16 63.5q0 17 15 22.5t61 5.5q45 0 61.5 -7.5t16.5 -32.5zM1107 960z" />
    <glyph glyph-name="t_t_ibreve.liga" unicode="tt&#x12d;" horiz-adv-x="1832" 
d="M420 756v-419q0 -73 23 -109.5t82 -36.5q20 0 36 3.5t28.5 8t21 8t15.5 3.5q6 0 11.5 -3.5t8.5 -14t5.5 -28.5t2.5 -46q0 -44 -5.5 -68t-15 -33t-26.5 -16.5t-40.5 -13t-51 -8.5t-55.5 -3q-75 0 -130 19t-91 58.5t-53 99.5t-17 142v457h-107q-19 0 -29 23.5t-10 78.5
q0 29 2.5 49t7.5 31.5t12.5 16.5t17.5 5h106v199q0 10 5.5 18t20 13.5t39 8t60.5 2.5q37 0 61.5 -2.5t38.5 -8t20 -13.5t6 -18v-199h383v247q0 10 5.5 18t20 13t39 8t60.5 3q37 0 61.5 -3t38.5 -8t20 -13t6 -18v-247h576q42 0 59 -18t17 -52v-856q0 -10 -6 -17.5t-20 -12.5
t-38.5 -7.5t-60.5 -2.5q-37 0 -61.5 2.5t-38.5 7.5t-20 12.5t-6 17.5v722h-401v-419q0 -73 22.5 -109.5t82.5 -36.5q20 0 36 3.5t28 8t21 8t16 3.5q6 0 11 -3.5t8.5 -14t6 -28.5t2.5 -46q0 -44 -5.5 -68t-15 -33t-26.5 -16.5t-40.5 -13t-51 -8.5t-54.5 -3q-76 0 -131 19
t-91 58.5t-53 99.5t-17 142v457h-383zM1695 1361q2 19 19.5 29t61.5 10q26 0 43 -2t26.5 -6t13 -11t3.5 -16q0 -67 -17.5 -119t-53 -87.5t-91 -54t-130.5 -18.5q-78 0 -133 18.5t-90 54t-51.5 87t-16.5 117.5q0 20 17 28.5t65 8.5q25 0 41.5 -2t26.5 -7t14 -12.5t5 -17.5
q3 -27 10 -48.5t21.5 -37t36.5 -23.5t54 -8q29 0 51 7t38 21.5t25 36t11 52.5zM1177 960z" />
    <glyph glyph-name="t_t_iogonek.liga" unicode="tt&#x12f;" horiz-adv-x="1832" 
d="M1759 -260q0 -21 -2 -35t-6 -23.5t-11.5 -14.5t-18.5 -8q-35 -12 -75.5 -18t-94.5 -6q-49 0 -89 10t-68 30.5t-43 51t-15 71.5q0 21 3.5 40.5t12.5 38.5t23.5 38.5t36.5 41.5l43 43v756h-401v-419q0 -73 22.5 -109.5t82.5 -36.5q20 0 36 3.5t28 8t21 8t16 3.5
q6 0 11 -3.5t8.5 -14t6 -28.5t2.5 -46q0 -44 -5.5 -68t-15 -33t-26.5 -16.5t-40.5 -13t-51 -8.5t-54.5 -3q-76 0 -131 19t-91 58.5t-53 99.5t-17 142v457h-383v-419q0 -73 23 -109.5t82 -36.5q20 0 36 3.5t28.5 8t21 8t15.5 3.5q6 0 11.5 -3.5t8.5 -14t5.5 -28.5t2.5 -46
q0 -44 -5.5 -68t-15 -33t-26.5 -16.5t-40.5 -13t-51 -8.5t-55.5 -3q-75 0 -130 19t-91 58.5t-53 99.5t-17 142v457h-107q-19 0 -29 23.5t-10 78.5q0 29 2.5 49t7.5 31.5t12.5 16.5t17.5 5h106v199q0 10 5.5 18t20 13.5t39 8t60.5 2.5q37 0 61.5 -2.5t38.5 -8t20 -13.5t6 -18
v-199h383v247q0 10 5.5 18t20 13t39 8t60.5 3q37 0 61.5 -3t38.5 -8t20 -13t6 -18v-247h576q42 0 59 -18t17 -52v-855q0 -13 -7.5 -31t-18.5 -29l-59 -59q-25 -25 -33.5 -42t-8.5 -33q0 -41 62 -41h83q10 0 17 -2.5t11 -9t5.5 -18.5t1.5 -30zM1725 1226q0 -37 -6.5 -62.5
t-23 -41t-44.5 -22t-70 -6.5q-43 0 -71 6.5t-44.5 22t-23 41t-6.5 62.5q0 36 6.5 61t23 41t44.5 23t71 7q42 0 70 -7t44.5 -23t23 -41t6.5 -61z" />
    <glyph glyph-name="t_t_dotlessi.liga" unicode="tt&#x131;" horiz-adv-x="1832" 
d="M420 756v-419q0 -73 23 -109.5t82 -36.5q20 0 36 3.5t28.5 8t21 8t15.5 3.5q6 0 11.5 -3.5t8.5 -14t5.5 -28.5t2.5 -46q0 -44 -5.5 -68t-15 -33t-26.5 -16.5t-40.5 -13t-51 -8.5t-55.5 -3q-75 0 -130 19t-91 58.5t-53 99.5t-17 142v457h-107q-19 0 -29 23.5t-10 78.5
q0 29 2.5 49t7.5 31.5t12.5 16.5t17.5 5h106v199q0 10 5.5 18t20 13.5t39 8t60.5 2.5q37 0 61.5 -2.5t38.5 -8t20 -13.5t6 -18v-199h383v247q0 10 5.5 18t20 13t39 8t60.5 3q37 0 61.5 -3t38.5 -8t20 -13t6 -18v-247h576q42 0 59 -18t17 -52v-856q0 -10 -6 -17.5t-20 -12.5
t-38.5 -7.5t-60.5 -2.5q-37 0 -61.5 2.5t-38.5 7.5t-20 12.5t-6 17.5v722h-401v-419q0 -73 22.5 -109.5t82.5 -36.5q20 0 36 3.5t28 8t21 8t16 3.5q6 0 11 -3.5t8.5 -14t6 -28.5t2.5 -46q0 -44 -5.5 -68t-15 -33t-26.5 -16.5t-40.5 -13t-51 -8.5t-54.5 -3q-76 0 -131 19
t-91 58.5t-53 99.5t-17 142v457h-383z" />
    <glyph glyph-name="f_uni1EC9.liga" unicode="f&#x1ec9;" horiz-adv-x="1135" 
d="M1008 34q0 -10 -6 -17.5t-20 -12.5t-38.5 -7.5t-60.5 -2.5q-37 0 -61.5 2.5t-38.5 7.5t-20 12.5t-6 17.5v722h-331v-722q0 -10 -6 -17.5t-20 -12.5t-38.5 -7.5t-61.5 -2.5q-36 0 -60.5 2.5t-39 7.5t-20 12.5t-5.5 17.5v722h-112q-19 0 -28.5 23.5t-9.5 78.5q0 29 2.5 49
t7 31.5t12 16.5t17.5 5h111v77q0 90 18.5 158t57 113.5t97 68.5t137.5 23q40 0 75.5 -6.5t53.5 -14t25 -14t11 -19t5.5 -32t1.5 -48.5q0 -49 -5.5 -68.5t-21.5 -19.5q-6 0 -15 3t-21 6.5t-27.5 7t-35.5 3.5q-56 0 -80.5 -36.5t-24.5 -119.5v-82h506q38 0 57 -16.5t19 -52.5
v-857zM1073 1332q0 -72 -34 -116.5t-95 -58.5q-1 -12 -1.5 -24t-0.5 -24q-2 -24 -18.5 -36.5t-56.5 -12.5q-42 0 -59 11t-17 39l-2 93q-1 39 18 48.5t55 9.5h9q23 0 32.5 19t9.5 46q0 26 -11 47t-40 21t-56 -15l-16 -9q-7 -4 -19.5 -10t-25.5 -6q-11 0 -18 8.5t-11 21
t-5.5 27t-1.5 25.5q0 17 12 28t32 22q20 10 52 18.5t68 8.5q52 0 89.5 -14.5t62 -39.5t36.5 -57.5t12 -69.5zM656 960z" />
    <glyph glyph-name="f_uni1ECB.liga" unicode="f&#x1ecb;" horiz-adv-x="1135" 
d="M1027 1226q0 -37 -6.5 -62.5t-22.5 -41t-43.5 -22t-68.5 -6.5t-69 6.5t-44.5 22t-23 41t-6.5 62.5q0 36 6.5 61t23 41t44.5 23t69 7t68.5 -7t43.5 -23t22.5 -41t6.5 -61zM1008 34q0 -10 -6 -17.5t-20 -12.5t-38.5 -7.5t-60.5 -2.5q-37 0 -61.5 2.5t-38.5 7.5t-20 12.5
t-6 17.5v722h-331v-722q0 -10 -6 -17.5t-20 -12.5t-38.5 -7.5t-61.5 -2.5q-36 0 -60.5 2.5t-39 7.5t-20 12.5t-5.5 17.5v722h-112q-19 0 -28.5 23.5t-9.5 78.5q0 29 2.5 49t7 31.5t12 16.5t17.5 5h111v79q0 91 18.5 159t56.5 113.5t96 68t137 22.5q22 0 44.5 -2t42.5 -6
t35 -9t20.5 -10.5t9 -12.5t6 -18t3.5 -28.5t1 -43.5q0 -48 -5.5 -67.5t-21.5 -19.5q-6 0 -13.5 2t-18 5t-24.5 5.5t-35 2.5q-53 0 -77 -36t-24 -119v-85h506q38 0 57 -16.5t19 -52.5v-857zM1023 -206q0 -36 -6.5 -60.5t-22.5 -39.5t-43 -21.5t-67 -6.5t-66.5 6.5t-42.5 21
t-22.5 38t-6.5 57.5q0 36 7 60.5t23 39.5t43 21.5t67 6.5t66.5 -6.5t42 -21t22 -38t6.5 -57.5z" />
    <glyph glyph-name="f_f_uni1EC9.liga" unicode="ff&#x1ec9;" horiz-adv-x="1718" 
d="M1592 34q0 -10 -6 -17.5t-20.5 -12.5t-38.5 -7.5t-61 -2.5t-61 2.5t-38.5 7.5t-20.5 12.5t-6 17.5v722h-332v-722q0 -10 -6 -17.5t-20 -12.5t-38.5 -7.5t-60.5 -2.5q-37 0 -61.5 2.5t-38.5 7.5t-20 12.5t-6 17.5v722h-331v-722q0 -10 -6 -17.5t-20 -12.5t-38.5 -7.5
t-61.5 -2.5q-36 0 -60.5 2.5t-39 7.5t-20 12.5t-5.5 17.5v722h-112q-19 0 -28.5 23.5t-9.5 78.5q0 29 2.5 49t7 31.5t12 16.5t17.5 5h111v66q0 90 18.5 158t57 113.5t97 68.5t138.5 23q43 0 78.5 -7t54 -14t25.5 -13.5t11.5 -19t6.5 -32t2 -48.5q0 -49 -6.5 -69t-21.5 -20
q-7 0 -16 3l-21 7t-28.5 7.5t-36.5 3.5q-58 0 -83 -36.5t-25 -119.5v-71h331v79q0 91 19 159t57.5 113.5t97 68t138.5 22.5q42 0 77.5 -7t51.5 -13.5t23.5 -13.5t11.5 -19.5t5.5 -32t1.5 -48.5q0 -48 -5.5 -67.5t-21.5 -19.5q-6 0 -14.5 3t-21 6.5t-28 6.5t-35.5 3
q-56 0 -81 -36t-25 -119v-85h507q38 0 57.5 -16.5t19.5 -52.5v-857zM1660 1332q0 -72 -34 -116.5t-95 -58.5q-1 -12 -1.5 -24t-0.5 -24q-2 -24 -18.5 -36.5t-56.5 -12.5q-42 0 -59 11t-17 39l-2 93q-1 39 18 48.5t55 9.5h9q23 0 32.5 19t9.5 46q0 26 -11 47t-40 21t-56 -15
l-16 -9q-7 -4 -19.5 -10t-25.5 -6q-11 0 -18 8.5t-11 21t-5.5 27t-1.5 25.5q0 17 12 28t32 22q20 10 52 18.5t68 8.5q52 0 89.5 -14.5t62 -39.5t36.5 -57.5t12 -69.5zM1243 960z" />
    <glyph glyph-name="f_f_uni1ECB.liga" unicode="ff&#x1ecb;" horiz-adv-x="1718" 
d="M1611 1226q0 -37 -6.5 -62.5t-23 -41t-44 -22t-69.5 -6.5q-41 0 -68.5 6.5t-44 22t-23.5 41t-7 62.5q0 36 7 61t23.5 41t44 23t68.5 7q42 0 69.5 -7t44 -23t23 -41t6.5 -61zM1592 34q0 -10 -6 -17.5t-20.5 -12.5t-38.5 -7.5t-61 -2.5t-61 2.5t-38.5 7.5t-20.5 12.5
t-6 17.5v722h-332v-722q0 -10 -6 -17.5t-20 -12.5t-38.5 -7.5t-60.5 -2.5q-37 0 -61.5 2.5t-38.5 7.5t-20 12.5t-6 17.5v722h-331v-722q0 -10 -6 -17.5t-20 -12.5t-39 -7.5t-61 -2.5t-60.5 2.5t-39 7.5t-20 12.5t-5.5 17.5v722h-112q-19 0 -28.5 23.5t-9.5 78.5q0 29 2.5 49
t7 31.5t12 16.5t17.5 5h111v66q0 90 18.5 158t57 113.5t97 68.5t138.5 23q44 0 78.5 -7t53.5 -14t26 -13.5t11.5 -19t6.5 -32t2 -48.5q0 -49 -6.5 -69t-21.5 -20q-7 0 -16 3t-21.5 7t-29 7.5t-36.5 3.5q-57 0 -82 -36.5t-25 -119.5v-71h331v79q0 91 19 159t57 113.5t96 68
t137 22.5q21 0 44.5 -2t43 -6t34.5 -9t20.5 -10.5t9 -12.5t6 -18t3.5 -28.5t1 -43.5q0 -48 -5.5 -67.5t-21.5 -19.5q-6 0 -13.5 2t-18 5t-25 5.5t-34.5 2.5q-54 0 -78 -36t-24 -119v-85h507q38 0 57.5 -16.5t19.5 -52.5v-857zM1606 -206q0 -36 -6.5 -60.5t-22.5 -39.5
t-43 -21.5t-67 -6.5t-66.5 6.5t-42.5 21t-22.5 38t-6.5 57.5q0 36 7 60.5t23 39.5t43 21.5t67 6.5t66.5 -6.5t42 -21t22 -38t6.5 -57.5z" />
    <glyph glyph-name="f_uni01D0.liga" unicode="f&#x1d0;" horiz-adv-x="1151" 
d="M1026 34q0 -10 -6 -17.5t-20.5 -12.5t-38.5 -7.5t-61 -2.5t-61 2.5t-38.5 7.5t-20.5 12.5t-6 17.5v722h-348v-722q0 -10 -6 -17.5t-20.5 -12.5t-38.5 -7.5t-61 -2.5t-61 2.5t-38.5 7.5t-20 12.5t-5.5 17.5v722h-112q-19 0 -28.5 23.5t-9.5 78.5q0 59 9.5 80.5t29.5 21.5
h111v75q0 183 74.5 274t228.5 91q42 0 63.5 -8t30.5 -17q20 -17 20 -102q0 -29 -1.5 -45.5t-4.5 -24.5t-7.5 -10.5t-10.5 -2.5q-8 0 -20.5 4t-33.5 4q-20 0 -36 -6.5t-27.5 -23t-18 -44t-6.5 -70.5v-94h474q37 0 61 -2.5t38.5 -7.5t20.5 -12.5t6 -17.5v-886zM977 1370
q7 10 14 16.5t19 10.5t30.5 5.5t48.5 1.5q39 0 60 -2.5t27.5 -10t1.5 -20.5t-17 -33l-131 -223q-12 -20 -41 -26t-91 -6t-90 7.5t-38 24.5l-133 223q-12 20 -17 32.5t2 20t28 10.5t60 3q32 0 51 -1t30.5 -5t17.5 -10.5t12 -17.5l77 -151z" />
    <glyph glyph-name="f_uni0209.liga" unicode="f&#x209;" horiz-adv-x="1220" 
d="M532 1273q0 -29 -1 -45.5t-3 -24.5t-6.5 -10.5t-10.5 -2.5q-5 0 -10.5 0.5t-9.5 0.5q-24 0 -37.5 -11.5t-19.5 -30.5t-7 -43.5t-1 -51.5v-94h477q35 0 58.5 -2.5t38 -7.5t20.5 -12.5t6 -17.5v-886q0 -10 -6 -17.5t-20.5 -12.5t-38.5 -7.5t-61 -2.5t-61 2.5t-38.5 7.5
t-20.5 12.5t-6 17.5v722h-348v-722q0 -10 -6 -17.5t-20.5 -12.5t-38.5 -7.5t-61 -2.5t-61 2.5t-38.5 7.5t-20 12.5t-5.5 17.5v722h-112q-19 0 -28.5 23.5t-9.5 78.5q0 59 9.5 80.5t29.5 21.5h111v75q0 91 19.5 159.5t54 114t81.5 68.5t102 23q42 0 56.5 -4t23.5 -13
q11 -9 15.5 -38t4.5 -72zM1295 1118q9 -14 11 -23.5t-6 -16t-28.5 -9.5t-54.5 -3q-29 0 -48 2t-31.5 6t-21.5 10.5t-17 16.5l-193 232q-10 12 -11 21.5t11 17t38.5 11.5t72.5 4q33 0 55.5 -2t37.5 -6.5t24.5 -12.5t17.5 -19zM952 1118q9 -14 11 -23.5t-6 -16t-28.5 -9.5
t-54.5 -3q-29 0 -48 2t-31.5 6t-21.5 10.5t-17 16.5l-193 232q-10 12 -11 21.5t11 17t38.5 11.5t72.5 4q33 0 55.5 -2t37.5 -6.5t24.5 -12.5t17.5 -19z" />
    <glyph glyph-name="f_uni020B.liga" unicode="f&#x20b;" horiz-adv-x="1151" 
d="M592 1273q0 -29 -1.5 -45.5t-4.5 -24.5t-7.5 -10.5t-10.5 -2.5q-8 0 -20.5 4t-33.5 4q-20 0 -36 -6.5t-27.5 -23t-18 -44t-6.5 -70.5v-94h474q37 0 61 -2.5t38.5 -7.5t20.5 -12.5t6 -17.5v-886q0 -10 -6 -17.5t-20.5 -12.5t-38.5 -7.5t-61 -2.5t-61 2.5t-38.5 7.5
t-20.5 12.5t-6 17.5v722h-348v-722q0 -10 -6 -17.5t-20.5 -12.5t-38.5 -7.5t-61 -2.5t-61 2.5t-38.5 7.5t-20 12.5t-5.5 17.5v722h-112q-19 0 -28.5 23.5t-9.5 78.5q0 59 9.5 80.5t29.5 21.5h111v75q0 184 74 274.5t229 90.5q42 0 63.5 -8t30.5 -17q20 -17 20 -102z
M790 1125q-2 -19 -19 -29t-62 -10q-26 0 -43 2t-26.5 6t-13 11t-3.5 16q0 60 16.5 111t50.5 88.5t86 58.5t124 21q74 0 126.5 -21.5t85.5 -58.5t48.5 -88t15.5 -109q0 -20 -17 -28.5t-65 -8.5q-51 0 -68 9t-19 30q-3 27 -8 48.5t-16.5 37t-31 23.5t-51.5 8q-57 0 -81.5 -28
t-28.5 -89z" />
    <glyph glyph-name="f_uni1E2D.liga" unicode="f&#x1e2d;" horiz-adv-x="1135" 
d="M1027 1226q0 -37 -6.5 -62.5t-22.5 -41t-43.5 -22t-68.5 -6.5t-69 6.5t-44.5 22t-23 41t-6.5 62.5q0 36 6.5 61t23 41t44.5 23t69 7t68.5 -7t43.5 -23t22.5 -41t6.5 -61zM1008 34q0 -10 -6 -17.5t-20 -12.5t-38.5 -7.5t-60.5 -2.5q-37 0 -61.5 2.5t-38.5 7.5t-20 12.5
t-6 17.5v722h-331v-722q0 -10 -6 -17.5t-20 -12.5t-38.5 -7.5t-61.5 -2.5q-36 0 -60.5 2.5t-39 7.5t-20 12.5t-5.5 17.5v722h-112q-19 0 -28.5 23.5t-9.5 78.5q0 29 2.5 49t7 31.5t12 16.5t17.5 5h111v79q0 91 18.5 159t56.5 113.5t96 68t137 22.5q22 0 44.5 -2t42.5 -6
t35 -9t20.5 -10.5t9 -12.5t6 -18t3.5 -28.5t1 -43.5q0 -48 -5.5 -67.5t-21.5 -19.5q-6 0 -13.5 2t-18 5t-24.5 5.5t-35 2.5q-53 0 -77 -36t-24 -119v-85h506q38 0 57 -16.5t19 -52.5v-857zM1236 -153q0 -121 -57.5 -185.5t-159.5 -64.5q-39 0 -69 8t-54 21t-43.5 27.5
t-37.5 27t-35.5 21t-37.5 8.5q-33 0 -47 -23.5t-14 -61.5q0 -9 -3.5 -14.5t-12 -8.5t-24 -4t-39.5 -1q-21 0 -35.5 1.5t-23 6t-12.5 12.5t-4 21q0 116 56 182.5t160 66.5q57 0 96.5 -17.5t70 -39t56.5 -39t54 -17.5q30 0 46 21.5t16 63.5q0 17 15 22.5t61 5.5
q45 0 61.5 -7.5t16.5 -32.5zM426 -529z" />
    <glyph glyph-name="f_uni1E2F.liga" unicode="f&#x1e2f;" horiz-adv-x="1151" 
d="M967 1619q7 11 15 19t21.5 12.5t35 6.5t54.5 2q46 0 71 -4t34.5 -11.5t7 -17.5t-11.5 -21l-169 -189q-8 -10 -14.5 -16.5t-17 -10.5t-28 -6t-46.5 -2q-47 0 -65 6t-18 17q0 6 3.5 13t9.5 16zM891 1227q0 -70 -26.5 -97.5t-100.5 -27.5q-75 0 -101 26.5t-26 93.5
q0 72 27 99t100 27q76 0 101.5 -26.5t25.5 -94.5zM1232 1227q0 -70 -26.5 -97.5t-101.5 -27.5q-74 0 -100 26.5t-26 93.5q0 72 26.5 99t100.5 27q75 0 101 -26.5t26 -94.5zM592 1273q0 -29 -1.5 -45.5t-4.5 -24.5t-7.5 -10.5t-10.5 -2.5q-8 0 -20.5 4t-33.5 4
q-20 0 -36 -6.5t-27.5 -23t-18 -44t-6.5 -70.5v-94h474q37 0 61 -2.5t38.5 -7.5t20.5 -12.5t6 -17.5v-886q0 -10 -6 -17.5t-20.5 -12.5t-38.5 -7.5t-61 -2.5t-61 2.5t-38.5 7.5t-20.5 12.5t-6 17.5v722h-348v-722q0 -10 -6 -17.5t-20.5 -12.5t-38.5 -7.5t-61 -2.5t-61 2.5
t-38.5 7.5t-20 12.5t-5.5 17.5v722h-112q-19 0 -28.5 23.5t-9.5 78.5q0 59 9.5 80.5t29.5 21.5h111v75q0 184 74 274.5t229 90.5q42 0 63.5 -8t30.5 -17q20 -17 20 -102z" />
    <glyph glyph-name="f_uni0268.liga" unicode="f&#x268;" horiz-adv-x="1174" 
d="M1027 1226q0 -37 -6.5 -62.5t-22.5 -41t-43.5 -22t-68.5 -6.5t-69 6.5t-44.5 22t-23 41t-6.5 62.5q0 36 6.5 61t23 41t44.5 23t69 7t68.5 -7t43.5 -23t22.5 -41t6.5 -61zM1008 34q0 -10 -6 -17.5t-20 -12.5t-38.5 -7.5t-60.5 -2.5q-37 0 -61.5 2.5t-38.5 7.5t-20 12.5
t-6 17.5v722h-331v-722q0 -10 -6 -17.5t-20 -12.5t-38.5 -7.5t-61.5 -2.5q-36 0 -60.5 2.5t-39 7.5t-20 12.5t-5.5 17.5v722h-112q-19 0 -28.5 23.5t-9.5 78.5q0 29 2.5 49t7 31.5t12 16.5t17.5 5h111v79q0 91 18.5 159t56.5 113.5t96 68t137 22.5q22 0 44.5 -2t42.5 -6
t35 -9t20.5 -10.5t9 -12.5t6 -18t3.5 -28.5t1 -43.5q0 -48 -5.5 -67.5t-21.5 -19.5q-6 0 -13.5 2t-18 5t-24.5 5.5t-35 2.5q-53 0 -77 -36t-24 -119v-85h506q38 0 57 -16.5t19 -52.5v-857zM1135 599q19 0 29 -17t10 -69q0 -26 -2.5 -43t-7.5 -27t-12.5 -13.5t-16.5 -3.5
h-506q-9 0 -16.5 3t-12.5 12.5t-7.5 26.5t-2.5 45q0 52 10 69t29 17h506z" />
    <glyph glyph-name="f_f_uni01D0.liga" unicode="ff&#x1d0;" horiz-adv-x="1717" 
d="M1549 1370q7 10 14 16.5t19 10.5t30.5 5.5t48.5 1.5q39 0 60 -2.5t27.5 -10t1.5 -20.5t-17 -33l-131 -223q-12 -20 -41 -26t-91 -6t-90 7.5t-38 24.5l-133 223q-12 20 -17 32.5t2 20t28 10.5t60 3q32 0 51 -1t30.5 -5t17.5 -10.5t12 -17.5l77 -151zM1592 34
q0 -10 -6 -17.5t-20.5 -12.5t-38.5 -7.5t-61 -2.5t-61 2.5t-38.5 7.5t-20.5 12.5t-6 17.5v722h-332v-722q0 -10 -6 -17.5t-20 -12.5t-38.5 -7.5t-60.5 -2.5q-37 0 -61.5 2.5t-38.5 7.5t-20 12.5t-6 17.5v722h-331v-722q0 -10 -6 -17.5t-20 -12.5t-38.5 -7.5t-61.5 -2.5
q-36 0 -60.5 2.5t-39 7.5t-20 12.5t-5.5 17.5v722h-112q-19 0 -28.5 23.5t-9.5 78.5q0 29 2.5 49t7 31.5t12 16.5t17.5 5h111v66q0 90 18.5 158t57 113.5t97 68.5t138.5 23q43 0 78.5 -7t54 -14t25.5 -13.5t11.5 -19t6.5 -32t2 -48.5q0 -49 -6.5 -69t-21.5 -20q-7 0 -16 3
l-21 7t-28.5 7.5t-36.5 3.5q-58 0 -83 -36.5t-25 -119.5v-71h331v79q0 91 16.5 159t50 113.5t85 68t121.5 22.5q36 0 67 -7t45 -13.5t20.5 -13.5t10 -19.5t5 -32t1.5 -48.5q0 -48 -4 -67.5t-16 -19.5q-4 0 -10.5 3t-15.5 6.5t-20.5 6.5t-26.5 3q-41 0 -59.5 -36t-18.5 -119
v-85h507q38 0 57.5 -16.5t19.5 -52.5v-857z" />
    <glyph glyph-name="f_f_uni0209.liga" unicode="ff&#x209;" horiz-adv-x="1750" 
d="M1461 1118q9 -14 11 -23.5t-6 -16t-28.5 -9.5t-54.5 -3q-29 0 -48 2t-31.5 6t-21.5 10.5t-17 16.5l-134 161q0 -22 -1 -35q-1 -16 -3 -24t-6.5 -10.5t-10.5 -2.5q-5 0 -10.5 0.5t-9.5 0.5q-24 0 -37.5 -11.5t-19.5 -30.5t-7 -43.5t-1 -51.5v-94h477q35 0 58.5 -2.5
t38 -7.5t20.5 -12.5t6 -17.5v-886q0 -10 -6 -17.5t-20.5 -12.5t-38.5 -7.5t-61 -2.5t-61 2.5t-38.5 7.5t-20.5 12.5t-6 17.5v722h-348v-722q0 -10 -6 -17.5t-20.5 -12.5t-38.5 -7.5t-61 -2.5t-61 2.5t-38.5 7.5t-20 12.5t-5.5 17.5v722h-348v-722q0 -10 -6 -17.5t-20 -12.5
t-39 -7.5t-61 -2.5t-60.5 2.5t-39 7.5t-20 12.5t-5.5 17.5v722h-112q-19 0 -28.5 23.5t-9.5 78.5q0 29 2.5 49t7 31.5t12 16.5t17.5 5h111v75q0 91 18 159.5t56.5 114t98 68.5t140.5 23q39 0 74 -6.5t55 -14t27 -14t11.5 -19t6.5 -32t2 -48.5t-2 -46.5t-6 -27t-9 -13
t-11 -3.5q-7 0 -15.5 3.5t-21 7.5t-29.5 7.5t-40 3.5q-27 0 -46.5 -8.5t-32.5 -27t-19 -48t-6 -72.5v-82h348v75q0 91 19.5 159.5t54 114t81.5 68.5t102 23q42 0 56.5 -4t23.5 -13q26 4 72 4q33 0 55.5 -2t37.5 -6.5t24.5 -12.5t17.5 -19zM1804 1118q9 -14 11 -23.5t-6 -16
t-28.5 -9.5t-54.5 -3q-29 0 -48 2t-31.5 6t-21.5 10.5t-17 16.5l-193 232q-10 12 -11 21.5t11 17t38.5 11.5t72.5 4q33 0 55.5 -2t37.5 -6.5t24.5 -12.5t17.5 -19z" />
    <glyph glyph-name="f_f_uni020B.liga" unicode="ff&#x20b;" horiz-adv-x="1717" 
d="M1354 1125q-2 -19 -19 -29t-62 -10q-26 0 -43 2t-26.5 6t-13 11t-3.5 16q0 60 16.5 111t50.5 88.5t86 58.5t124 21q74 0 126.5 -21.5t85.5 -58.5t48.5 -88t15.5 -109q0 -20 -17 -28.5t-65 -8.5q-51 0 -68 9t-19 30q-3 27 -8 48.5t-16.5 37t-31 23.5t-51.5 8
q-57 0 -81.5 -28t-28.5 -89zM1592 34q0 -10 -6 -17.5t-20.5 -12.5t-38.5 -7.5t-61 -2.5t-61 2.5t-38.5 7.5t-20.5 12.5t-6 17.5v722h-332v-722q0 -10 -6 -17.5t-20 -12.5t-38.5 -7.5t-60.5 -2.5q-37 0 -61.5 2.5t-38.5 7.5t-20 12.5t-6 17.5v722h-331v-722q0 -10 -6 -17.5
t-20 -12.5t-38.5 -7.5t-61.5 -2.5q-36 0 -60.5 2.5t-39 7.5t-20 12.5t-5.5 17.5v722h-112q-19 0 -28.5 23.5t-9.5 78.5q0 29 2.5 49t7 31.5t12 16.5t17.5 5h111v66q0 90 18.5 158t57 113.5t97 68.5t138.5 23q43 0 78.5 -7t54 -14t25.5 -13.5t11.5 -19t6.5 -32t2 -48.5
q0 -49 -6.5 -69t-21.5 -20q-7 0 -16 3l-21 7t-28.5 7.5t-36.5 3.5q-58 0 -83 -36.5t-25 -119.5v-71h331v79q0 91 16.5 159t50 113.5t85 68t121.5 22.5q36 0 67 -7t45 -13.5t20.5 -13.5t10 -19.5t5 -32t1.5 -48.5q0 -48 -4 -67.5t-16 -19.5q-4 0 -10.5 3t-15.5 6.5t-20.5 6.5
t-26.5 3q-41 0 -59.5 -36t-18.5 -119v-85h507q38 0 57.5 -16.5t19.5 -52.5v-857z" />
    <glyph glyph-name="f_f_uni1E2D.liga" unicode="ff&#x1e2d;" horiz-adv-x="1718" 
d="M1611 1226q0 -37 -6.5 -62.5t-23 -41t-44 -22t-69.5 -6.5q-41 0 -68.5 6.5t-44 22t-23.5 41t-7 62.5q0 36 7 61t23.5 41t44 23t68.5 7q42 0 69.5 -7t44 -23t23 -41t6.5 -61zM1592 34q0 -10 -6 -17.5t-20.5 -12.5t-38.5 -7.5t-61 -2.5t-61 2.5t-38.5 7.5t-20.5 12.5
t-6 17.5v722h-332v-722q0 -10 -6 -17.5t-20 -12.5t-38.5 -7.5t-60.5 -2.5q-37 0 -61.5 2.5t-38.5 7.5t-20 12.5t-6 17.5v722h-331v-722q0 -10 -6 -17.5t-20 -12.5t-39 -7.5t-61 -2.5t-60.5 2.5t-39 7.5t-20 12.5t-5.5 17.5v722h-112q-19 0 -28.5 23.5t-9.5 78.5q0 29 2.5 49
t7 31.5t12 16.5t17.5 5h111v66q0 90 18.5 158t57 113.5t97 68.5t138.5 23q44 0 78.5 -7t53.5 -14t26 -13.5t11.5 -19t6.5 -32t2 -48.5q0 -49 -6.5 -69t-21.5 -20q-7 0 -16 3t-21.5 7t-29 7.5t-36.5 3.5q-57 0 -82 -36.5t-25 -119.5v-71h331v79q0 91 19 159t57 113.5t96 68
t137 22.5q21 0 44.5 -2t43 -6t34.5 -9t20.5 -10.5t9 -12.5t6 -18t3.5 -28.5t1 -43.5q0 -48 -5.5 -67.5t-21.5 -19.5q-6 0 -13.5 2t-18 5t-25 5.5t-34.5 2.5q-54 0 -78 -36t-24 -119v-85h507q38 0 57.5 -16.5t19.5 -52.5v-857zM1819 -153q0 -121 -57.5 -185.5t-159.5 -64.5
q-39 0 -69 8t-54 21t-43.5 27.5t-37.5 27t-35.5 21t-37.5 8.5q-33 0 -47 -23.5t-14 -61.5q0 -9 -3.5 -14.5t-12 -8.5t-24 -4t-39.5 -1q-21 0 -35.5 1.5t-23 6t-12.5 12.5t-4 21q0 116 56 182.5t160 66.5q57 0 96.5 -17.5t70 -39t56.5 -39t54 -17.5q30 0 46 21.5t16 63.5
q0 17 15 22.5t61 5.5q45 0 61.5 -7.5t16.5 -32.5zM1009 -529z" />
    <glyph glyph-name="f_f_uni1E2F.liga" unicode="ff&#x1e2f;" horiz-adv-x="1717" 
d="M1174 1273q0 -29 -1.5 -45.5t-4.5 -24.5t-7.5 -10.5t-10.5 -2.5q-8 0 -20.5 4t-33.5 4q-20 0 -36 -6.5t-27.5 -23t-18 -44t-6.5 -70.5v-94h458q37 0 61 -2.5t38.5 -7.5t20.5 -12.5t6 -17.5v-886q0 -10 -6 -17.5t-20.5 -12.5t-38.5 -7.5t-61 -2.5t-61 2.5t-38.5 7.5
t-20.5 12.5t-6 17.5v722h-332v-722q0 -10 -6 -17.5t-20.5 -12.5t-38.5 -7.5t-61 -2.5t-61 2.5t-38.5 7.5t-20 12.5t-5.5 17.5v722h-331v-722q0 -10 -6 -17.5t-20 -12.5t-39 -7.5t-61 -2.5t-60.5 2.5t-39 7.5t-20 12.5t-5.5 17.5v722h-112q-19 0 -28.5 23.5t-9.5 78.5
q0 29 2.5 49t7 31.5t12 16.5t17.5 5h111v65q0 91 18 159.5t56.5 114t98 68.5t140.5 23q39 0 74 -6.5t55 -14t27 -14t11.5 -19t6.5 -32t2 -48.5t-2 -46.5t-6 -27t-9 -13t-11 -3.5q-7 0 -15.5 3.5t-21 7.5t-29.5 7.5t-40 3.5q-27 0 -46.5 -8.5t-32.5 -27t-19 -48t-6 -72.5v-72
h331v75q0 184 74 274.5t229 90.5q42 0 63.5 -8t30.5 -17q20 -17 20 -102zM1519 1619q7 11 15 19t21.5 12.5t35 6.5t54.5 2q46 0 71 -4t34.5 -11.5t7 -17.5t-11.5 -21l-169 -189q-8 -10 -14.5 -16.5t-17 -10.5t-28 -6t-46.5 -2q-47 0 -65 6t-18 17q0 6 3.5 13t9.5 16z
M1453 1227q0 -70 -26.5 -97.5t-100.5 -27.5q-75 0 -101 26.5t-26 93.5q0 72 27 99t100 27q76 0 101.5 -26.5t25.5 -94.5zM1784 1227q0 -70 -26.5 -97.5t-101.5 -27.5q-74 0 -100 26.5t-26 93.5q0 72 26.5 99t100.5 27q75 0 101 -26.5t26 -94.5z" />
    <glyph glyph-name="f_f_uni0268.liga" unicode="ff&#x268;" horiz-adv-x="1746" 
d="M1611 1226q0 -37 -6.5 -62.5t-23 -41t-44 -22t-69.5 -6.5q-41 0 -68.5 6.5t-44 22t-23.5 41t-7 62.5q0 36 7 61t23.5 41t44 23t68.5 7q42 0 69.5 -7t44 -23t23 -41t6.5 -61zM1592 34q0 -10 -6 -17.5t-20.5 -12.5t-38.5 -7.5t-61 -2.5t-61 2.5t-38.5 7.5t-20.5 12.5
t-6 17.5v722h-332v-722q0 -10 -6 -17.5t-20 -12.5t-38.5 -7.5t-60.5 -2.5q-37 0 -61.5 2.5t-38.5 7.5t-20 12.5t-6 17.5v722h-331v-722q0 -10 -6 -17.5t-20 -12.5t-39 -7.5t-61 -2.5t-60.5 2.5t-39 7.5t-20 12.5t-5.5 17.5v722h-112q-19 0 -28.5 23.5t-9.5 78.5q0 29 2.5 49
t7 31.5t12 16.5t17.5 5h111v66q0 90 18.5 158t57 113.5t97 68.5t138.5 23q44 0 78.5 -7t53.5 -14t26 -13.5t11.5 -19t6.5 -32t2 -48.5q0 -49 -6.5 -69t-21.5 -20q-7 0 -16 3t-21.5 7t-29 7.5t-36.5 3.5q-57 0 -82 -36.5t-25 -119.5v-71h331v79q0 91 19 159t57 113.5t96 68
t137 22.5q21 0 44.5 -2t43 -6t34.5 -9t20.5 -10.5t9 -12.5t6 -18t3.5 -28.5t1 -43.5q0 -48 -5.5 -67.5t-21.5 -19.5q-6 0 -13.5 2t-18 5t-25 5.5t-34.5 2.5q-54 0 -78 -36t-24 -119v-85h507q38 0 57.5 -16.5t19.5 -52.5v-857zM1707 599q19 0 29 -17t10 -69q0 -26 -2.5 -43
t-7.5 -27t-12.5 -13.5t-16.5 -3.5h-506q-9 0 -16.5 3t-12.5 12.5t-7.5 26.5t-2.5 45q0 52 10 69t29 17h506z" />
    <glyph glyph-name="t_uni01D0.liga" unicode="t&#x1d0;" horiz-adv-x="1199" 
d="M997 960q42 0 58.5 -18t16.5 -52v-856q0 -10 -6 -17.5t-20 -12.5t-38.5 -7.5t-60.5 -2.5q-37 0 -61.5 2.5t-38.5 7.5t-20 12.5t-6 17.5v722h-401v-419q0 -73 23 -109.5t82 -36.5q20 0 36 3.5t28.5 8t21 8t15.5 3.5q6 0 11.5 -3.5t8.5 -14t5.5 -28.5t2.5 -46
q0 -44 -5 -66.5t-14 -33t-27 -18t-41.5 -13t-51 -8.5t-55.5 -3q-75 0 -130 19t-91 58.5t-53 99.5t-17 142v457h-107q-19 0 -29 23.5t-10 78.5q0 29 2.5 49t7.5 31.5t12.5 16.5t17.5 5h106v199q0 10 5.5 18t20 13.5t39 8t60.5 2.5q37 0 61.5 -2.5t38.5 -8t20 -13.5t6 -18
v-199h577zM1016 1370q7 10 14 17t19 10.5t30.5 5t48.5 1.5q40 0 61 -3t28 -11t2 -20.5t-19 -31.5l-157 -223q-7 -9 -17 -15.5t-25 -10t-37 -5t-53 -1.5t-53 2t-36.5 6t-24 10t-14.5 14l-159 223q-13 19 -18 31.5t2 20.5t28.5 11t60.5 3q32 0 50.5 -1.5t30 -5.5t17.5 -10.5
t13 -16.5l103 -151zM501 960z" />
    <glyph glyph-name="t_uni0209.liga" unicode="t&#x209;" horiz-adv-x="1199" 
d="M997 960q42 0 58.5 -18t16.5 -52v-856q0 -10 -6 -17.5t-20 -12.5t-38.5 -7.5t-60.5 -2.5q-37 0 -61.5 2.5t-38.5 7.5t-20 12.5t-6 17.5v722h-401v-419q0 -73 23 -109.5t82 -36.5q20 0 36 3.5t28.5 8t21 8t15.5 3.5q6 0 11.5 -3.5t8.5 -14t5.5 -28.5t2.5 -46
q0 -44 -5 -66.5t-14 -33t-27 -18t-41.5 -13t-51 -8.5t-55.5 -3q-75 0 -130 19t-91 58.5t-53 99.5t-17 142v457h-107q-19 0 -29 23.5t-10 78.5q0 29 2.5 49t7.5 31.5t12.5 16.5t17.5 5h106v199q0 10 5.5 18t20 13.5t39 8t60.5 2.5q37 0 61.5 -2.5t38.5 -8t20 -13.5t6 -18
v-199h577zM829 1118q9 -14 11 -23.5t-6 -16t-28.5 -9.5t-54.5 -3q-29 0 -48 2t-31.5 6t-21 11t-17.5 16l-213 232q-10 11 -11 21t11 17.5t38.5 11.5t72.5 4q33 0 55.5 -2t37.5 -6.5t24.5 -12.5t17.5 -19zM1172 1118q9 -14 11 -23.5t-6 -16t-28.5 -9.5t-54.5 -3q-29 0 -48 2
t-31.5 6t-21 11t-17.5 16l-213 232q-10 11 -11 21t11 17.5t38.5 11.5t72.5 4q33 0 55.5 -2t37.5 -6.5t24.5 -12.5t17.5 -19zM329 960z" />
    <glyph glyph-name="t_uni020B.liga" unicode="t&#x20b;" horiz-adv-x="1199" 
d="M997 960q42 0 58.5 -18t16.5 -52v-856q0 -10 -6 -17.5t-20 -12.5t-38.5 -7.5t-60.5 -2.5q-37 0 -61.5 2.5t-38.5 7.5t-20 12.5t-6 17.5v722h-401v-419q0 -73 23 -109.5t82 -36.5q20 0 36 3.5t28.5 8t21 8t15.5 3.5q6 0 11.5 -3.5t8.5 -14t5.5 -28.5t2.5 -46
q0 -44 -5 -66.5t-14 -33t-27 -18t-41.5 -13t-51 -8.5t-55.5 -3q-75 0 -130 19t-91 58.5t-53 99.5t-17 142v457h-107q-19 0 -29 23.5t-10 78.5q0 29 2.5 49t7.5 31.5t12.5 16.5t17.5 5h106v199q0 10 5.5 18t20 13.5t39 8t60.5 2.5q37 0 61.5 -2.5t38.5 -8t20 -13.5t6 -18
v-199h577zM784 1125q-2 -19 -19.5 -29t-61.5 -10q-26 0 -43 2t-26.5 6t-13 11t-3.5 16q0 67 17.5 119t53 87.5t91 54t130.5 18.5q78 0 133 -18.5t90 -54t51.5 -87t16.5 -117.5q0 -20 -17 -28.5t-65 -8.5q-25 0 -41.5 2t-26.5 7t-14 12.5t-5 17.5q-3 27 -10 48.5t-21.5 37
t-36.5 23.5t-54 8q-29 0 -51 -7t-38 -21.5t-25 -36t-11 -52.5zM515 960z" />
    <glyph glyph-name="t_uni1E2D.liga" unicode="t&#x1e2d;" horiz-adv-x="1199" 
d="M997 960q42 0 58.5 -18t16.5 -52v-856q0 -10 -6 -17.5t-20 -12.5t-38.5 -7.5t-60.5 -2.5q-37 0 -61.5 2.5t-38.5 7.5t-20 12.5t-6 17.5v722h-401v-419q0 -73 23 -109.5t82 -36.5q20 0 36 3.5t28.5 8t21 8t15.5 3.5q6 0 11.5 -3.5t8.5 -14t5.5 -28.5t2.5 -46
q0 -44 -5 -66.5t-14 -33t-27 -18t-41.5 -13t-51 -8.5t-55.5 -3q-75 0 -130 19t-91 58.5t-53 99.5t-17 142v457h-107q-19 0 -29 23.5t-10 78.5q0 29 2.5 49t7.5 31.5t12.5 16.5t17.5 5h106v199q0 10 5.5 18t20 13.5t39 8t60.5 2.5q37 0 61.5 -2.5t38.5 -8t20 -13.5t6 -18
v-199h577zM1300 -153q0 -121 -57.5 -185.5t-159.5 -64.5q-39 0 -69 8t-54 21t-43.5 27.5t-37.5 27t-35.5 21t-37.5 8.5q-33 0 -47 -23.5t-14 -61.5q0 -9 -3.5 -14.5t-12 -8.5t-24 -4t-39.5 -1q-21 0 -35.5 1.5t-23 6t-12.5 12.5t-4 21q0 116 56 182.5t160 66.5
q57 0 96.5 -17.5t70 -39t56.5 -39t54 -17.5q30 0 46 21.5t16 63.5q0 17 15 22.5t61 5.5q45 0 61.5 -7.5t16.5 -32.5zM490 -529zM1092 1228q0 -76 -31 -105t-115 -29q-85 0 -114.5 28t-29.5 101q0 76 30.5 105.5t115.5 29.5q84 0 114 -28.5t30 -101.5zM695 960z" />
    <glyph glyph-name="t_uni1E2F.liga" unicode="t&#x1e2f;" horiz-adv-x="1199" 
d="M997 960q42 0 58.5 -18t16.5 -52v-856q0 -10 -6 -17.5t-20 -12.5t-38.5 -7.5t-60.5 -2.5q-37 0 -61.5 2.5t-38.5 7.5t-20 12.5t-6 17.5v722h-401v-419q0 -73 23 -109.5t82 -36.5q20 0 36 3.5t28.5 8t21 8t15.5 3.5q6 0 11.5 -3.5t8.5 -14t5.5 -28.5t2.5 -46
q0 -44 -5 -66.5t-14 -33t-27 -18t-41.5 -13t-51 -8.5t-55.5 -3q-75 0 -130 19t-91 58.5t-53 99.5t-17 142v457h-107q-19 0 -29 23.5t-10 78.5q0 29 2.5 49t7.5 31.5t12.5 16.5t17.5 5h106v199q0 10 5.5 18t20 13.5t39 8t60.5 2.5q37 0 61.5 -2.5t38.5 -8t20 -13.5t6 -18
v-199h577zM945 1619q7 11 15 19t21.5 12.5t35 6.5t54.5 2q46 0 71 -4t34.5 -11.5t7 -17.5t-11.5 -21l-169 -189q-8 -10 -14.5 -16.5t-17 -10.5t-28 -6t-46.5 -2q-47 0 -65 6t-18 17q0 6 3.5 13t9.5 16zM839 1227q0 -70 -26.5 -97.5t-100.5 -27.5q-75 0 -101 26.5t-26 93.5
q0 72 27 99t100 27q76 0 101.5 -26.5t25.5 -94.5zM1230 1227q0 -70 -26.5 -97.5t-101.5 -27.5q-74 0 -100 26.5t-26 93.5q0 72 26.5 99t100.5 27q75 0 101 -26.5t26 -94.5zM504 960z" />
    <glyph glyph-name="t_uni0268.liga" unicode="t&#x268;" horiz-adv-x="1199" 
d="M997 960q42 0 58.5 -18t16.5 -52v-856q0 -10 -6 -17.5t-20 -12.5t-38.5 -7.5t-60.5 -2.5q-37 0 -61.5 2.5t-38.5 7.5t-20 12.5t-6 17.5v722h-401v-419q0 -73 23 -109.5t82 -36.5q20 0 36 3.5t28.5 8t21 8t15.5 3.5q6 0 11.5 -3.5t8.5 -14t5.5 -28.5t2.5 -46
q0 -44 -5 -66.5t-14 -33t-27 -18t-41.5 -13t-51 -8.5t-55.5 -3q-75 0 -130 19t-91 58.5t-53 99.5t-17 142v457h-107q-19 0 -29 23.5t-10 78.5q0 29 2.5 49t7.5 31.5t12.5 16.5t17.5 5h106v199q0 10 5.5 18t20 13.5t39 8t60.5 2.5q37 0 61.5 -2.5t38.5 -8t20 -13.5t6 -18
v-199h577zM1092 1228q0 -76 -31 -105t-115 -29q-85 0 -114.5 28t-29.5 101q0 76 30.5 105.5t115.5 29.5q84 0 114 -28.5t30 -101.5zM695 960zM1192 599q19 0 29 -17t10 -69q0 -26 -2.5 -43t-7.5 -27t-12.5 -13.5t-16.5 -3.5h-506q-9 0 -16.5 3t-12.5 12.5t-7.5 26.5t-2.5 45
q0 52 10 69t29 17h506z" />
    <glyph glyph-name="t_t_uni01D0.liga" unicode="tt&#x1d0;" horiz-adv-x="1832" 
d="M420 756v-419q0 -73 23 -109.5t82 -36.5q20 0 36 3.5t28.5 8t21 8t15.5 3.5q6 0 11.5 -3.5t8.5 -14t5.5 -28.5t2.5 -46q0 -44 -5.5 -68t-15 -33t-26.5 -16.5t-40.5 -13t-51 -8.5t-55.5 -3q-75 0 -130 19t-91 58.5t-53 99.5t-17 142v457h-107q-19 0 -29 23.5t-10 78.5
q0 29 2.5 49t7.5 31.5t12.5 16.5t17.5 5h106v199q0 10 5.5 18t20 13.5t39 8t60.5 2.5q37 0 61.5 -2.5t38.5 -8t20 -13.5t6 -18v-199h383v247q0 10 5.5 18t20 13t39 8t60.5 3q37 0 61.5 -3t38.5 -8t20 -13t6 -18v-247h576q42 0 59 -18t17 -52v-856q0 -10 -6 -17.5t-20 -12.5
t-38.5 -7.5t-60.5 -2.5q-37 0 -61.5 2.5t-38.5 7.5t-20 12.5t-6 17.5v722h-401v-419q0 -73 22.5 -109.5t82.5 -36.5q20 0 36 3.5t28 8t21 8t16 3.5q6 0 11 -3.5t8.5 -14t6 -28.5t2.5 -46q0 -44 -5.5 -68t-15 -33t-26.5 -16.5t-40.5 -13t-51 -8.5t-54.5 -3q-76 0 -131 19
t-91 58.5t-53 99.5t-17 142v457h-383zM1629 1370q7 10 14 17t19 10.5t30.5 5t48.5 1.5q40 0 61 -3t28 -11t2 -20.5t-19 -31.5l-157 -223q-7 -9 -17 -15.5t-25 -10t-37 -5t-53 -1.5t-53 2t-36.5 6t-24 10t-14.5 14l-159 223q-13 19 -18 31.5t2 20.5t28.5 11t60.5 3
q32 0 50.5 -1.5t30 -5.5t17.5 -10.5t13 -16.5l103 -151zM1114 960z" />
    <glyph glyph-name="t_t_uni0209.liga" unicode="tt&#x209;" horiz-adv-x="1832" 
d="M420 756v-419q0 -73 23 -109.5t82 -36.5q20 0 36 3.5t28.5 8t21 8t15.5 3.5q6 0 11.5 -3.5t8.5 -14t5.5 -28.5t2.5 -46q0 -44 -5.5 -68t-15 -33t-26.5 -16.5t-40.5 -13t-51 -8.5t-55.5 -3q-75 0 -130 19t-91 58.5t-53 99.5t-17 142v457h-107q-19 0 -29 23.5t-10 78.5
q0 29 2.5 49t7.5 31.5t12.5 16.5t17.5 5h106v199q0 10 5.5 18t20 13.5t39 8t60.5 2.5q37 0 61.5 -2.5t38.5 -8t20 -13.5t6 -18v-199h383v247q0 10 5.5 18t20 13t39 8t60.5 3q37 0 61.5 -3t38.5 -8t20 -13t6 -18v-247h576q42 0 59 -18t17 -52v-856q0 -10 -6 -17.5t-20 -12.5
t-38.5 -7.5t-60.5 -2.5q-37 0 -61.5 2.5t-38.5 7.5t-20 12.5t-6 17.5v722h-401v-419q0 -73 22.5 -109.5t82.5 -36.5q20 0 36 3.5t28 8t21 8t16 3.5q6 0 11 -3.5t8.5 -14t6 -28.5t2.5 -46q0 -44 -5.5 -68t-15 -33t-26.5 -16.5t-40.5 -13t-51 -8.5t-54.5 -3q-76 0 -131 19
t-91 58.5t-53 99.5t-17 142v457h-383zM1441 1118q9 -14 11 -23.5t-6 -16t-28.5 -9.5t-54.5 -3q-29 0 -48 2t-31.5 6t-21 11t-17.5 16l-213 232q-10 11 -11 21t11 17.5t38.5 11.5t72.5 4q33 0 55.5 -2t37.5 -6.5t24.5 -12.5t17.5 -19zM1784 1118q9 -14 11 -23.5t-6 -16
t-28.5 -9.5t-54.5 -3q-29 0 -48 2t-31.5 6t-21 11t-17.5 16l-213 232q-10 11 -11 21t11 17.5t38.5 11.5t72.5 4q33 0 55.5 -2t37.5 -6.5t24.5 -12.5t17.5 -19zM941 960z" />
    <glyph glyph-name="t_t_uni020B.liga" unicode="tt&#x20b;" horiz-adv-x="1832" 
d="M420 756v-419q0 -73 23 -109.5t82 -36.5q20 0 36 3.5t28.5 8t21 8t15.5 3.5q6 0 11.5 -3.5t8.5 -14t5.5 -28.5t2.5 -46q0 -44 -5.5 -68t-15 -33t-26.5 -16.5t-40.5 -13t-51 -8.5t-55.5 -3q-75 0 -130 19t-91 58.5t-53 99.5t-17 142v457h-107q-19 0 -29 23.5t-10 78.5
q0 29 2.5 49t7.5 31.5t12.5 16.5t17.5 5h106v199q0 10 5.5 18t20 13.5t39 8t60.5 2.5q37 0 61.5 -2.5t38.5 -8t20 -13.5t6 -18v-199h383v247q0 10 5.5 18t20 13t39 8t60.5 3q37 0 61.5 -3t38.5 -8t20 -13t6 -18v-247h576q42 0 59 -18t17 -52v-856q0 -10 -6 -17.5t-20 -12.5
t-38.5 -7.5t-60.5 -2.5q-37 0 -61.5 2.5t-38.5 7.5t-20 12.5t-6 17.5v722h-401v-419q0 -73 22.5 -109.5t82.5 -36.5q20 0 36 3.5t28 8t21 8t16 3.5q6 0 11 -3.5t8.5 -14t6 -28.5t2.5 -46q0 -44 -5.5 -68t-15 -33t-26.5 -16.5t-40.5 -13t-51 -8.5t-54.5 -3q-76 0 -131 19
t-91 58.5t-53 99.5t-17 142v457h-383zM1396 1125q-2 -19 -19.5 -29t-61.5 -10q-26 0 -43 2t-26.5 6t-13 11t-3.5 16q0 67 17.5 119t53 87.5t91 54t130.5 18.5q78 0 133 -18.5t90 -54t51.5 -87t16.5 -117.5q0 -20 -17 -28.5t-65 -8.5q-25 0 -41.5 2t-26.5 7t-14 12.5t-5 17.5
q-3 27 -10 48.5t-21.5 37t-36.5 23.5t-54 8q-29 0 -51 -7t-38 -21.5t-25 -36t-11 -52.5zM1127 960z" />
    <glyph glyph-name="t_t_uni1E2D.liga" unicode="tt&#x1e2d;" horiz-adv-x="1832" 
d="M420 756v-419q0 -73 23 -109.5t82 -36.5q20 0 36 3.5t28.5 8t21 8t15.5 3.5q6 0 11.5 -3.5t8.5 -14t5.5 -28.5t2.5 -46q0 -44 -5.5 -68t-15 -33t-26.5 -16.5t-40.5 -13t-51 -8.5t-55.5 -3q-75 0 -130 19t-91 58.5t-53 99.5t-17 142v457h-107q-19 0 -29 23.5t-10 78.5
q0 29 2.5 49t7.5 31.5t12.5 16.5t17.5 5h106v199q0 10 5.5 18t20 13.5t39 8t60.5 2.5q37 0 61.5 -2.5t38.5 -8t20 -13.5t6 -18v-199h383v247q0 10 5.5 18t20 13t39 8t60.5 3q37 0 61.5 -3t38.5 -8t20 -13t6 -18v-247h576q42 0 59 -18t17 -52v-856q0 -10 -6 -17.5t-20 -12.5
t-38.5 -7.5t-60.5 -2.5q-37 0 -61.5 2.5t-38.5 7.5t-20 12.5t-6 17.5v722h-401v-419q0 -73 22.5 -109.5t82.5 -36.5q20 0 36 3.5t28 8t21 8t16 3.5q6 0 11 -3.5t8.5 -14t6 -28.5t2.5 -46q0 -44 -5.5 -68t-15 -33t-26.5 -16.5t-40.5 -13t-51 -8.5t-54.5 -3q-76 0 -131 19
t-91 58.5t-53 99.5t-17 142v457h-383zM1933 -153q0 -121 -57.5 -185.5t-159.5 -64.5q-39 0 -69 8t-54 21t-43.5 27.5t-37.5 27t-35.5 21t-37.5 8.5q-33 0 -47 -23.5t-14 -61.5q0 -9 -3.5 -14.5t-12 -8.5t-24 -4t-39.5 -1q-21 0 -35.5 1.5t-23 6t-12.5 12.5t-4 21
q0 116 56 182.5t160 66.5q57 0 96.5 -17.5t70 -39t56.5 -39t54 -17.5q30 0 46 21.5t16 63.5q0 17 15 22.5t61 5.5q45 0 61.5 -7.5t16.5 -32.5zM1123 -529zM1726 1228q0 -76 -31 -105t-115 -29q-85 0 -114.5 28t-29.5 101q0 76 30.5 105.5t115.5 29.5q84 0 114 -28.5
t30 -101.5zM1329 960z" />
    <glyph glyph-name="t_t_uni1E2F.liga" unicode="tt&#x1e2f;" horiz-adv-x="1832" 
d="M420 756v-419q0 -73 23 -109.5t82 -36.5q20 0 36 3.5t28.5 8t21 8t15.5 3.5q6 0 11.5 -3.5t8.5 -14t5.5 -28.5t2.5 -46q0 -44 -5.5 -68t-15 -33t-26.5 -16.5t-40.5 -13t-51 -8.5t-55.5 -3q-75 0 -130 19t-91 58.5t-53 99.5t-17 142v457h-107q-19 0 -29 23.5t-10 78.5
q0 29 2.5 49t7.5 31.5t12.5 16.5t17.5 5h106v199q0 10 5.5 18t20 13.5t39 8t60.5 2.5q37 0 61.5 -2.5t38.5 -8t20 -13.5t6 -18v-199h383v247q0 10 5.5 18t20 13t39 8t60.5 3q37 0 61.5 -3t38.5 -8t20 -13t6 -18v-247h576q42 0 59 -18t17 -52v-856q0 -10 -6 -17.5t-20 -12.5
t-38.5 -7.5t-60.5 -2.5q-37 0 -61.5 2.5t-38.5 7.5t-20 12.5t-6 17.5v722h-401v-419q0 -73 22.5 -109.5t82.5 -36.5q20 0 36 3.5t28 8t21 8t16 3.5q6 0 11 -3.5t8.5 -14t6 -28.5t2.5 -46q0 -44 -5.5 -68t-15 -33t-26.5 -16.5t-40.5 -13t-51 -8.5t-54.5 -3q-76 0 -131 19
t-91 58.5t-53 99.5t-17 142v457h-383zM1558 1619q7 11 15 19t21.5 12.5t35 6.5t54.5 2q46 0 71 -4t34.5 -11.5t7 -17.5t-11.5 -21l-169 -189q-8 -10 -14.5 -16.5t-17 -10.5t-28 -6t-46.5 -2q-47 0 -65 6t-18 17q0 6 3.5 13t9.5 16zM1452 1227q0 -70 -26.5 -97.5
t-100.5 -27.5q-75 0 -101 26.5t-26 93.5q0 72 27 99t100 27q76 0 101.5 -26.5t25.5 -94.5zM1843 1227q0 -70 -26.5 -97.5t-101.5 -27.5q-74 0 -100 26.5t-26 93.5q0 72 26.5 99t100.5 27q75 0 101 -26.5t26 -94.5zM1117 960z" />
    <glyph glyph-name="t_t_uni0268.liga" unicode="tt&#x268;" horiz-adv-x="1832" 
d="M420 756v-419q0 -73 23 -109.5t82 -36.5q20 0 36 3.5t28.5 8t21 8t15.5 3.5q6 0 11.5 -3.5t8.5 -14t5.5 -28.5t2.5 -46q0 -44 -5.5 -68t-15 -33t-26.5 -16.5t-40.5 -13t-51 -8.5t-55.5 -3q-75 0 -130 19t-91 58.5t-53 99.5t-17 142v457h-107q-19 0 -29 23.5t-10 78.5
q0 29 2.5 49t7.5 31.5t12.5 16.5t17.5 5h106v199q0 10 5.5 18t20 13.5t39 8t60.5 2.5q37 0 61.5 -2.5t38.5 -8t20 -13.5t6 -18v-199h383v247q0 10 5.5 18t20 13t39 8t60.5 3q37 0 61.5 -3t38.5 -8t20 -13t6 -18v-247h576q42 0 59 -18t17 -52v-856q0 -10 -6 -17.5t-20 -12.5
t-38.5 -7.5t-60.5 -2.5q-37 0 -61.5 2.5t-38.5 7.5t-20 12.5t-6 17.5v722h-401v-419q0 -73 22.5 -109.5t82.5 -36.5q20 0 36 3.5t28 8t21 8t16 3.5q6 0 11 -3.5t8.5 -14t6 -28.5t2.5 -46q0 -44 -5.5 -68t-15 -33t-26.5 -16.5t-40.5 -13t-51 -8.5t-54.5 -3q-76 0 -131 19
t-91 58.5t-53 99.5t-17 142v457h-383zM1679 1228q0 -76 -31 -105t-115 -29q-85 0 -114.5 28t-29.5 101q0 76 30.5 105.5t115.5 29.5q84 0 114 -28.5t30 -101.5zM1282 960zM1836 599q19 0 29 -17t10 -69q0 -26 -2.5 -43t-7.5 -27t-12.5 -13.5t-16.5 -3.5h-506q-9 0 -16.5 3
t-12.5 12.5t-7.5 26.5t-2.5 45q0 52 10 69t29 17h506z" />
    <glyph glyph-name="f_f_uni0237.liga" unicode="ff&#x237;" horiz-adv-x="1718" 
d="M757 1039q0 91 19 159t57 113.5t96 68t137 22.5q22 0 45.5 -2t43 -6t34 -9t20 -10.5t9 -12.5t6 -18t3.5 -28.5t1 -43.5q0 -48 -6 -67.5t-21 -19.5q-7 0 -14 2l-17.5 5t-24.5 5.5t-34 2.5q-54 0 -78.5 -36t-24.5 -119v-85h507q38 0 57.5 -16.5t19.5 -52.5v-911
q0 -79 -15.5 -142.5t-50.5 -108.5t-92.5 -69.5t-140.5 -24.5q-24 0 -46 2t-42 6.5t-34.5 10t-20.5 11t-9.5 13t-5.5 18.5t-3 26t-1 37q0 28 1.5 47.5t5.5 31t9.5 16t12.5 4.5t14 -2.5t16.5 -5t22.5 -5t33 -2.5q21 0 38.5 7.5t30 24.5t19 44.5t6.5 69.5v767h-332v-722
q0 -10 -6 -17.5t-20 -12.5t-38.5 -7.5t-60.5 -2.5q-37 0 -61.5 2.5t-38.5 7.5t-20 12.5t-6 17.5v722h-331v-722q0 -10 -6 -17.5t-20 -12.5t-38.5 -7.5t-61.5 -2.5q-36 0 -60.5 2.5t-39 7t-20 12t-5.5 17.5v723h-112q-19 0 -28.5 23.5t-9.5 78.5q0 29 2.5 49t7 31.5t12 16.5
t17.5 5h111v66q0 90 18.5 158t57 113.5t97 68.5t138.5 23q44 0 79 -7.5t53.5 -14t25.5 -13t11.5 -19t6.5 -32t2 -48.5q0 -49 -6.5 -69t-21.5 -20q-7 0 -16 3l-21 7t-28.5 7.5t-36.5 3.5q-58 0 -83 -36.5t-25 -119.5v-71h331v79z" />
    <glyph glyph-name="uniFEDF_uniFEE0_uniFEEA.liga" unicode="&#xfedf;&#xfee0;&#xfeea;" horiz-adv-x="1958" 
d="M1879 546q0 -54 -10.5 -111t-25.5 -106.5t-32 -87t-30 -52.5q-23 -20 -56.5 -34.5t-66.5 -14.5q-46 0 -98.5 5.5t-104.5 26.5t-98.5 62t-80.5 111h-6q-9 -44 -31.5 -87t-61.5 -77t-97 -55t-137 -21q-63 0 -116.5 17t-92.5 54.5t-61 97.5t-23 146h-7q-18 -29 -40 -55
t-45 -46t-45.5 -32t-40.5 -12q-42 0 -89 3.5t-92.5 12t-87.5 22t-74 33t-51 46t-19 60.5q0 31 19 74t46 86t58 80t55 56q14 10 55.5 32.5t98 50t121.5 57.5t127 57v10t1 10q1 15 6 27.5t14.5 25.5t23.5 27t32 34q25 27 41.5 43t26.5 16q16 0 16 -13q0 -55 0.5 -115t2.5 -106
q2 -85 4 -169.5t9 -170.5q3 -55 20 -91t43.5 -57t60 -29.5t70.5 -8.5t75.5 7.5t71 25t55 44.5t27.5 66q0 23 -4.5 59t-11.5 78t-15 86t-15 84.5t-11.5 74.5t-4.5 54q0 26 18.5 54t51.5 72q24 32 44.5 51.5t33.5 19.5q7 0 13.5 -4t7.5 -10q19 -154 36.5 -291.5t35.5 -274.5
q7 -43 31.5 -75t57 -53.5t68 -32t65.5 -10.5q22 0 42.5 5t37.5 19q0 22 -6.5 68.5t-16.5 105t-21.5 122.5t-21.5 122t-16.5 103.5t-6.5 66.5q0 18 18 51t42.5 65.5t49.5 56.5t39 24q6 0 12.5 -4.5t6.5 -8.5q7 -68 15.5 -138t17.5 -136.5t17.5 -127.5t15 -111t10.5 -86t4 -54
zM1187 1402q2 5 9.5 9t28.5 4q29 0 29 -13q0 -17 -3 -41.5t-8 -40.5q5 -4 14.5 -8t20.5 -4q17 0 30.5 14t23 35t16 45.5t9.5 46.5q2 13 10.5 17.5t32.5 4.5q21 0 23 -15q0 -39 -7 -84t-24.5 -83t-48 -63.5t-77.5 -25.5q-23 0 -39 7t-27 15q-9 -12 -20 -25t-26 -23t-35 -16.5
t-47 -6.5q-15 0 -29 4t-25.5 15t-18.5 31.5t-7 52.5t11 64.5t23 48.5q4 7 12.5 9t21.5 2q6 0 14 -3t8 -11q0 -12 -7 -32t-7 -34q0 -12 6.5 -21.5t20.5 -9.5q21 0 36 15t26 36t18 44t12 40zM644 573q0 35 -0.5 72t-0.5 87v79h-3q-5 -8 -13.5 -16t-17.5 -16t-18 -14.5
t-16 -10.5q-32 -16 -71 -33t-79.5 -36t-80.5 -40.5t-75 -45.5q24 -21 53 -34t60 -20.5t61 -10t56 -1.5q43 0 77.5 11.5t67.5 28.5zM1254 1473q-2 -8 -8 -11t-24 -3q-22 0 -22 14q0 37 -2 82.5t-14 87.5q-9 33 -27 57t-39 44q-6 6 -6 25q0 8 3 26.5t7.5 38t10 34t11.5 14.5
q12 0 23 -11q54 -57 78 -127.5t24 -146.5q0 -29 -5 -65t-10 -59z" />
    <glyph glyph-name="uniFEDF_uniFEE0_uniFEEA.liga" unicode="&#xfedf;&#xfee0;&#xfeea;" horiz-adv-x="1958" 
d="M1879 546q0 -54 -10.5 -111t-25.5 -106.5t-32 -87t-30 -52.5q-23 -20 -56.5 -34.5t-66.5 -14.5q-46 0 -98.5 5.5t-104.5 26.5t-98.5 62t-80.5 111h-6q-9 -44 -31.5 -87t-61.5 -77t-97 -55t-137 -21q-63 0 -116.5 17t-92.5 54.5t-61 97.5t-23 146h-7q-18 -29 -40 -55
t-45 -46t-45.5 -32t-40.5 -12q-42 0 -89 3.5t-92.5 12t-87.5 22t-74 33t-51 46t-19 60.5q0 31 19 74t46 86t58 80t55 56q14 10 55.5 32.5t98 50t121.5 57.5t127 57v10t1 10q1 15 6 27.5t14.5 25.5t23.5 27t32 34q25 27 41.5 43t26.5 16q16 0 16 -13q0 -55 0.5 -115t2.5 -106
q2 -85 4 -169.5t9 -170.5q3 -55 20 -91t43.5 -57t60 -29.5t70.5 -8.5t75.5 7.5t71 25t55 44.5t27.5 66q0 23 -4.5 59t-11.5 78t-15 86t-15 84.5t-11.5 74.5t-4.5 54q0 26 18.5 54t51.5 72q24 32 44.5 51.5t33.5 19.5q7 0 13.5 -4t7.5 -10q19 -154 36.5 -291.5t35.5 -274.5
q7 -43 31.5 -75t57 -53.5t68 -32t65.5 -10.5q22 0 42.5 5t37.5 19q0 22 -6.5 68.5t-16.5 105t-21.5 122.5t-21.5 122t-16.5 103.5t-6.5 66.5q0 18 18 51t42.5 65.5t49.5 56.5t39 24q6 0 12.5 -4.5t6.5 -8.5q7 -68 15.5 -138t17.5 -136.5t17.5 -127.5t15 -111t10.5 -86t4 -54
zM644 573q0 35 -0.5 72t-0.5 87v79h-3q-5 -8 -13.5 -16t-17.5 -16t-18 -14.5t-16 -10.5q-32 -16 -71 -33t-79.5 -36t-80.5 -40.5t-75 -45.5q24 -21 53 -34t60 -20.5t61 -10t56 -1.5q43 0 77.5 11.5t67.5 28.5z" />
    <glyph glyph-name="uniFEDF_uniFE8E.rlig" unicode="&#xfedf;&#xfe8e;" horiz-adv-x="1187" 
d="M928 1522q9 9 14 9q13 0 13 -12q3 -24 9 -44.5t19.5 -42t36.5 -46.5t59 -59q16 -15 22 -26t6 -23q0 -15 -7 -36t-17.5 -41t-24 -36t-26.5 -21q3 -37 8.5 -87.5t11 -102.5t10 -99.5t4.5 -79.5q0 -62 -6 -134t-28.5 -148.5t-66.5 -154t-119 -149.5q-75 -74 -173.5 -114.5
t-217.5 -54.5q-38 -6 -83 -10t-90 -6.5t-87 -3.5t-73 -1q-22 0 -22 61q0 27 4.5 35.5t14.5 11.5q81 25 158 52t147.5 57t133.5 65t116 77q-10 41 -21.5 80.5t-29.5 83t-45 93t-68 110.5q-35 50 -81 105t-103 103l-19 -43q-8 -18 -20 -20t-22 7q-69 44 -113 78.5t-69 64.5
t-34.5 57.5t-9.5 59.5q0 24 5 51t13.5 53.5t20.5 50.5t26 44q21 30 42 30q14 0 42.5 -17t66 -46.5t81 -69.5t86.5 -85t83.5 -93.5t71.5 -95.5q58 -84 96 -159.5t61 -141.5t34.5 -122.5t16.5 -102.5q69 72 97.5 135t28.5 123q0 17 -3.5 50t-8.5 74t-11.5 88t-12.5 93
t-10.5 88.5t-6.5 75.5q-1 14 -0.5 26.5t2.5 25.5q-17 17 -28.5 48t-11.5 63q0 25 9.5 52t24.5 52.5t34.5 49.5t39.5 45z" />
    <glyph glyph-name="uniFEE0_uniFE8E.rlig" unicode="&#xfee0;&#xfe8e;" horiz-adv-x="1281" 
d="M1281 160q-64 0 -115 14.5t-89 46t-63.5 82.5t-38.5 125q-11 68 -14.5 126t-8.5 121h-6q-6 -41 -17 -91.5t-29 -105.5t-44 -112.5t-62 -112.5q-30 -45 -68.5 -80.5t-82.5 -62t-92 -45t-97 -30.5q-33 -8 -75 -14.5t-87 -11.5t-89 -7.5t-81 -2.5q-22 0 -22 64
q0 24 4.5 32.5t14.5 11.5q72 23 147 57t145.5 77.5t133 94.5t110.5 108q-43 142 -122 263.5t-208 237.5l-20 -46q-6 -15 -19 -16q-10 -2 -22 5q-68 47 -111.5 83t-69 66.5t-35 59t-9.5 60.5q0 26 5 54.5t14.5 56t22.5 53t29 44.5q13 15 31 18q13 1 24 -5q37 -25 85.5 -61.5
t102.5 -84.5t110 -107t107 -129q40 -51 70 -108.5t52.5 -116t37.5 -116.5t24 -111q25 38 51.5 89.5t49 118t37 148t14.5 180.5q-3 61 -7 123t-6 119q0 28 19.5 57t54.5 67q10 12 21.5 23.5t22 20.5t20 14.5t15.5 5.5q8 0 13.5 -4.5t5.5 -9.5q9 -192 25.5 -397.5t33.5 -407.5
q6 -78 20 -129t36.5 -82t52.5 -43.5t68 -12.5z" />
    <glyph glyph-name="uniFEB3_uniFEAE.liga" unicode="&#xfeb3;&#xfeae;" horiz-adv-x="2186" 
d="M1943 656q0 15 11 40t40 62q25 36 38.5 48.5t24.5 12.5q13 0 19 -17q8 -20 17 -48t16.5 -61t12 -70.5t4.5 -76.5q0 -71 -16 -137.5t-45 -123.5q-28 -51 -62.5 -78.5t-69.5 -27.5q-34 0 -75.5 10.5t-83 29t-79.5 43t-64 51.5q-61 -69 -150.5 -108t-189.5 -39
q-41 0 -75 15.5t-59.5 40.5t-41.5 57.5t-22 67.5l-10 7q-29 -15 -62.5 -28t-69 -24.5t-71 -20t-67.5 -14.5q-5 -63 -22.5 -132.5t-46 -136t-68 -127t-88.5 -106.5t-107 -73t-123 -27q-29 0 -65 6t-76.5 19t-84 32.5t-86.5 46.5q-14 9 -22.5 16.5t-14 18t-7.5 26.5t-2 40
q0 32 5 43.5t19 11.5q10 0 30 -11.5t45.5 -25.5t54.5 -25.5t58 -11.5q54 0 107.5 19t102.5 49.5t92 70t76 80t55 78.5t29 67q-9 5 -22 11.5t-25 13.5t-20 15t-8 16q0 27 5 66t14 76t21 64t26 30q66 14 139.5 31.5t144.5 37t134 40.5t107 42q24 0 46 -8t22 -28
q0 -17 -10.5 -38t-19.5 -41q3 -16 9 -35.5t18 -36.5t30.5 -28.5t46.5 -11.5q45 0 82.5 10t67.5 26t52 34.5t37 36.5q31 39 49 86t29 89q2 9 13.5 14.5t48.5 5.5q33 0 45 -5t12 -15q0 -17 -3 -39t-8 -44.5t-10.5 -44t-10.5 -37.5q13 -27 39 -49.5t56 -38t59 -24.5t48 -9
q26 0 41.5 19t15.5 54q0 25 -8 50.5t-18 47t-18 37t-8 21.5z" />
    <glyph glyph-name="uniFEB4_uniFEAE.liga" unicode="&#xfeb4;&#xfeae;" horiz-adv-x="2274" 
d="M1975 665q2 14 14 27.5t47 26.5q33 16 46.5 18.5t17.5 -3.5q2 -2 3 -8.5t0 -11.5q-2 -36 -6.5 -79t-9.5 -82q16 -62 65 -95.5t142 -33.5l-20 -264q-24 0 -57 5t-68 21.5t-68.5 47t-58.5 80.5h-5q-32 -86 -71 -132.5t-93 -46.5q-36 0 -68.5 12t-62 32.5t-56.5 48.5t-51 60
q-25 -29 -61 -56t-79.5 -48t-94 -34t-103.5 -13q-40 0 -71.5 16.5t-54.5 43.5t-37.5 62t-20.5 71l-10 6q-29 -15 -62.5 -28t-69 -24t-71 -19.5t-67.5 -14.5q-5 -62 -22.5 -129.5t-46 -132.5t-68 -123t-88.5 -102.5t-107 -70.5t-123 -26q-29 0 -65.5 6.5t-77 19.5t-84 32.5
t-85.5 45.5q-14 8 -23 15.5t-14 18.5t-7 27t-2 40q0 32 5 43t19 11q10 0 30 -11.5t45.5 -25t54.5 -25t58 -11.5q54 0 107 17.5t101.5 46t91.5 65t76 75t55.5 75.5t30.5 66q-11 6 -24 12t-24 13t-19 14.5t-8 16.5q0 28 5 67t14 76t21 64t26 30q67 14 140.5 31t144 36.5
t133 40.5t107.5 43q24 0 46 -8.5t22 -28.5q0 -17 -9.5 -38t-20.5 -40q3 -24 9 -47t17.5 -41.5t29.5 -29.5t46 -11q82 0 140.5 28.5t88.5 66.5q13 16 25.5 37.5t22.5 45t18 46.5t13 43q2 10 14 15.5t48 5.5q33 0 44.5 -5.5t11.5 -16.5q0 -17 -3 -36.5t-7.5 -40t-9.5 -40
t-9 -34.5q6 -21 20.5 -42.5t35 -39t44.5 -28t49 -10.5q24 0 42.5 27.5t34.5 91.5q9 38 13 79.5t9 74.5z" />
    <glyph glyph-name="uniFEBB_uniFEAE.liga" unicode="&#xfebb;&#xfeae;" horiz-adv-x="2428" 
d="M1532 384q11 -2 25.5 -3t29.5 -2q32 -1 75 -1.5t81 1.5q63 3 125 11t117.5 20t102 27t78.5 32q11 19 4 45q-6 24 -27.5 48t-52 43.5t-67.5 32t-74 12.5q-32 0 -83 -21t-108.5 -57.5t-117 -85t-108.5 -102.5zM1377 132q-19 -35 -41.5 -87.5t-46.5 -109.5q-6 -12 -11.5 -19
t-14 -10.5t-20.5 -4.5t-30 -1q-23 0 -32.5 4.5t-9.5 17.5q0 20 9 52t21 65.5t24.5 65t20.5 49.5q-32 9 -61 24t-54 38t-44 54.5t-31 74.5q-54 -26 -117 -44t-126 -30q-5 -63 -22.5 -132t-46 -136t-68 -127.5t-88.5 -106t-107 -72.5t-123 -27q-29 0 -65.5 6.5t-77 19t-84 32
t-85.5 45.5q-14 9 -22.5 16.5t-14 18.5t-7.5 26.5t-2 39.5q0 32 5 43.5t19 11.5q10 0 30 -11.5t45.5 -25.5t54.5 -25.5t58 -11.5q54 0 107.5 19t102.5 49.5t92 70t76 80t55 78.5t29 67q-9 5 -22 11t-25 13t-20 14.5t-8 16.5q0 29 5 68.5t14 76t21 63t26 29.5q71 15 141.5 32
t135 34.5t121.5 36.5t102 39q12 0 24 -2t21.5 -6.5t16 -12t6.5 -18.5q0 -17 -11 -39t-19 -39q4 -28 19 -50.5t38.5 -39t53.5 -27t64 -15.5q37 45 86.5 98t106 105.5t118 101.5t124.5 86.5t124.5 60t116.5 22.5q36 0 73.5 -12t72.5 -32.5t66 -47.5t53.5 -57t36 -61.5
t13.5 -60.5q0 -63 -17.5 -121.5t-46 -109t-64 -90t-70.5 -63.5q-137 -59 -273.5 -83t-265.5 -24q-32 0 -67 1.5t-69 3.5t-65 5t-54 6z" />
    <glyph glyph-name="uniFEBC_uniFEAE.liga" unicode="&#xfebc;&#xfeae;" horiz-adv-x="2474" 
d="M1377 142q-19 -35 -41.5 -87.5t-46.5 -109.5q-6 -12 -11.5 -19t-14 -10.5t-20.5 -4.5t-30 -1q-23 0 -32.5 4.5t-9.5 17.5q0 19 8.5 50t20 64.5t24.5 65t22 52.5q-32 9 -61 23t-54 35.5t-44 51t-31 70.5q-54 -26 -117 -44t-126 -30q-5 -63 -22.5 -132t-46 -136t-68 -127.5
t-88.5 -106t-107 -72.5t-123 -27q-29 0 -65.5 6.5t-77 19t-84 32t-85.5 45.5q-14 9 -22.5 16.5t-14 18.5t-7.5 26.5t-2 39.5q0 32 5 43.5t19 11.5q10 0 30 -11.5t45.5 -25.5t54.5 -25.5t58 -11.5q54 0 107.5 19t102.5 49.5t91.5 69.5t76 79.5t55.5 79t29 67.5q-10 5 -23 11
t-24.5 13t-19.5 14t-8 15q0 32 5 72t14 76t21 62t26 29q71 16 141 33t134.5 34.5t122 36t102.5 38.5q12 0 24 -2t21.5 -6.5t16 -12t6.5 -17.5q0 -18 -11 -40.5t-19 -38.5q4 -26 19 -46.5t38.5 -35.5t53.5 -25t64 -14q37 45 86 97.5t106 105t119 101.5t124.5 86.5t124 60
t116.5 22.5t111 -25.5t101.5 -65.5t74 -87.5t28.5 -91.5q0 -34 -5 -65t-13.5 -57.5t-18.5 -46.5t-20 -32l12 -5q35 7 75.5 10t93.5 3l-19 -264q-47 0 -101.5 -0.5t-107.5 2.5t-99.5 11.5t-75.5 25.5q-120 -42 -233.5 -57.5t-224.5 -15.5q-32 0 -67 1.5t-69 3.5t-65 5t-54 6z
M1587 389q78 -6 162.5 -0.5t163 18t145 31.5t108.5 40q11 20 4 46q-6 24 -27.5 48t-52 43.5t-67.5 32t-74 12.5q-33 0 -83.5 -21t-108.5 -57.5t-117 -85t-108 -103.5z" />
    <glyph glyph-name="uniFEA3_uniFEF0.liga" unicode="&#xfea3;&#xfef0;" horiz-adv-x="2056" 
d="M911 631q-11 0 -15 9.5t-4 34.5q0 24 2 36.5t6 21.5q40 104 98 151t126 47q52 0 101.5 -11.5t101 -30t106.5 -42.5t117 -48q112 -45 228 -77t241 -32q17 0 17 -21q0 -17 -5.5 -42t-22.5 -69q-21 -58 -38.5 -89t-34.5 -31q-25 0 -55 5t-56 5q-62 0 -130 -9t-135 -22.5
t-128 -28.5t-109 -28q-39 -11 -83.5 -23.5t-87 -25t-79.5 -25t-62 -22.5q38 -17 86 -36.5t90 -43.5t71 -54t29 -68q0 -24 -7.5 -54t-19.5 -60t-26.5 -58.5t-28.5 -50.5q-44 -44 -116 -84.5t-162 -72.5t-194 -51t-212 -19q-124 0 -211.5 36.5t-143 98t-81 141t-25.5 165.5
q0 58 10.5 114.5t27 108t35.5 95.5t36 78q7 13 14 21.5t16.5 13t23.5 6.5t35 2q29 0 40.5 -4.5t11.5 -18.5q0 -11 -12.5 -37t-27 -62.5t-27 -82.5t-12.5 -98q0 -75 26.5 -132.5t75.5 -96t118 -58t154 -19.5q71 0 151.5 12.5t154.5 33.5t133.5 47.5t89.5 55.5
q-11 15 -50.5 28t-93.5 25t-114 24t-111 24q-27 12 -29 50q0 14 5 33t12.5 40.5t17 44.5t18.5 44q15 38 39 55t59 30q58 21 129.5 42t151.5 39.5t167 34.5t175 26v5q-56 17 -113 37.5t-112.5 38t-106.5 29.5t-94 12q-46 0 -74 -10t-45.5 -21.5t-29 -21.5t-23.5 -10z" />
    <glyph glyph-name="uniFEA4_uniFEF0.liga" unicode="&#xfea4;&#xfef0;" horiz-adv-x="2130" 
d="M2130 160q-85 0 -158.5 5.5t-149.5 21.5q-113 21 -166.5 77.5t-50.5 145.5q1 34 6.5 68t11.5 73l-5 6q-88 -17 -163.5 -36.5t-132.5 -36.5q-43 -13 -91.5 -28t-94 -31t-84.5 -30.5t-63 -26.5q45 -20 97.5 -41.5t96.5 -46.5t73.5 -56t29.5 -70q0 -26 -7.5 -56t-19.5 -61
t-26.5 -60t-28.5 -52q-44 -45 -116 -87t-162 -74.5t-194 -52t-212 -19.5q-124 0 -211.5 37t-143 98.5t-81 142t-25.5 167.5q0 56 10.5 111.5t27 106.5t35.5 95.5t36 79.5q14 26 31 34.5t58 8.5q29 0 40.5 -5t11.5 -19q0 -11 -12.5 -37t-27 -63t-27 -82.5t-12.5 -96.5
q0 -74 28 -131.5t78 -96.5t118.5 -59.5t149.5 -20.5q72 0 152 13t153.5 34.5t133.5 49.5t90 58q-12 15 -51.5 28t-92.5 25.5t-112.5 25t-110.5 25.5q-28 14 -29 52q0 14 5 33.5t12.5 42t17 46t18.5 46.5q14 38 37.5 57.5t58.5 34.5q57 24 126.5 48t147.5 45t163 39t174 30v9
q-56 17 -109 35.5t-105 34.5t-102 26t-98 10q-46 0 -74 -10t-45.5 -21.5t-29 -21.5t-23.5 -10q-11 0 -15 10t-4 33q0 26 2.5 38.5t5.5 21.5q40 103 98 150.5t126 47.5q51 0 100.5 -11t100.5 -29t106 -40.5t119 -44.5q56 -20 112.5 -39t114.5 -34t118.5 -24.5t123.5 -9.5
q17 0 17 -19q0 -17 -5 -43t-22 -69q-42 -115 -68 -115q-24 0 -51 5t-50 6q-25 0 -50.5 -0.5t-53.5 -5.5q0 -44 22.5 -73t72 -46.5t128 -24.5t190.5 -7z" />
    <glyph glyph-name="uniFEB3_uniFEF0.liga" unicode="&#xfeb3;&#xfef0;" horiz-adv-x="2324" 
d="M1788 783q2 11 14 16.5t48 5.5q33 0 44.5 -5t11.5 -16q0 -17 -3 -39t-8 -44.5t-10.5 -43.5t-10.5 -37q13 -28 39.5 -50.5t56 -38.5t58.5 -24.5t48 -8.5q58 0 58 74q0 25 -8.5 50.5t-18 47t-18 37t-8.5 21.5q0 14 11 39.5t41 62.5q24 34 37.5 47t25.5 13q13 0 20 -16
q8 -20 16.5 -48t16 -61.5t12 -71t4.5 -76.5q0 -71 -15.5 -137.5t-42 -117.5t-61.5 -81.5t-74 -30.5q-40 0 -84.5 13t-86 32.5t-76.5 43t-56 44.5q-20 -26 -44.5 -51.5t-58 -46.5t-77.5 -34t-102 -13q-57 0 -93 15t-59.5 38t-39 52t-30.5 56q-15 25 -28.5 47t-30.5 38.5
t-39.5 26.5t-56.5 10q-63 0 -119 -17t-98 -41t-66.5 -49.5t-24.5 -41.5q0 -24 51 -43t165 -39q45 -9 77.5 -20.5t52.5 -31.5t29.5 -51.5t9.5 -79.5q0 -24 -6 -53t-16 -60t-23 -62t-26 -58q-56 -59 -125 -108t-149 -84.5t-170 -55t-187 -19.5q-125 0 -207.5 39t-131 102
t-68 142t-19.5 158q0 58 10 113.5t25.5 107t35 96.5t38.5 82q7 14 14 22.5t17 13.5t24.5 6.5t35.5 1.5q28 0 39 -5t11 -19q0 -11 -12.5 -37t-27 -63t-27 -83.5t-12.5 -98.5q0 -76 24 -133.5t68.5 -96t107.5 -58t141 -19.5q55 0 118.5 12t125.5 33.5t116 50t89 61.5
q0 8 -6 13.5t-23.5 11t-47.5 10.5t-78 12q-32 5 -69 14.5t-68.5 29t-52.5 52t-21 82.5q0 63 22.5 126t60.5 120.5t88.5 107t107 86t116 57.5t115.5 21q48 0 83 -15.5t60.5 -38.5t42.5 -50.5t30 -52.5q15 -29 30.5 -52t34.5 -39.5t43 -25.5t55 -9q47 0 86 21.5t70 60t53 91
t36 115.5z" />
    <glyph glyph-name="uniFEB4_uniFEF0.liga" unicode="&#xfeb4;&#xfef0;" horiz-adv-x="2489" 
d="M1829 288q-21 -25 -52 -48t-71.5 -41t-91.5 -28.5t-112 -10.5q-44 0 -78.5 14.5t-62 39t-49.5 56t-41 65.5q-15 27 -30 50.5t-33 41t-42 27.5t-58 10q-61 0 -116.5 -16.5t-97.5 -39.5t-67 -47.5t-25 -40.5q0 -23 51 -40t165 -38q45 -8 77.5 -19t52.5 -29.5t29.5 -47.5
t9.5 -74q0 -23 -6 -50.5t-16 -57t-23 -58.5t-26 -54q-56 -56 -125 -102.5t-149 -79.5t-170 -51.5t-187 -18.5q-125 0 -207.5 39.5t-131 102.5t-68 142t-19.5 157q0 57 10 113t25.5 107t35 96.5t38.5 82.5q7 13 14 22t17 13.5t24.5 6.5t35.5 2q28 0 39 -4.5t11 -20.5
q0 -11 -12.5 -37t-27 -62.5t-27 -83t-12.5 -98.5q0 -75 24 -132.5t68.5 -96.5t107.5 -59t141 -20q55 0 118.5 11.5t125 31.5t115.5 47t90 58q0 8 -6 13.5t-23.5 10.5t-47.5 10.5t-78 12.5q-32 4 -68.5 13t-68 27t-52.5 48.5t-21 78.5q0 59 22.5 118.5t60.5 113.5t89 101
t107.5 81.5t116 54.5t115.5 20q48 0 83 -15.5t60.5 -39.5t43.5 -52.5t33 -55.5q36 -64 76.5 -103t85.5 -39q70 0 121.5 19t88 52.5t59.5 78.5t36 98q2 10 13.5 15.5t47.5 5.5q34 0 45.5 -5.5t11.5 -16.5q0 -17 -3 -37t-7.5 -40.5t-9.5 -39.5t-9 -33q6 -21 20.5 -43t34.5 -39
t44 -28t50 -11q23 0 42 27.5t35 91.5q8 41 12.5 84.5t8.5 69.5q2 14 14 27.5t48 27.5q33 15 46 17.5t16 -3.5q3 -3 4 -9t0 -11q-2 -44 -6 -81.5t-9 -79.5q17 -63 65.5 -96t140.5 -33l-19 -264q-24 0 -57 5t-67.5 21.5t-68 47t-58.5 80.5h-6q-30 -84 -70 -131.5t-95 -47.5
q-39 0 -74 13t-65 34.5t-55 49t-44 56.5z" />
    <glyph glyph-name="uniFEBB_uniFEF0.liga" unicode="&#xfebb;&#xfef0;" horiz-adv-x="2554" 
d="M1657 477q13 -2 27.5 -2.5t28.5 -2.5q33 -2 76 -2t81 2q63 3 125 11t117.5 20t102 26.5t79.5 31.5q9 21 3 46q-6 23 -27.5 47t-52.5 43.5t-68 32t-74 12.5q-32 0 -83 -21t-108.5 -57t-117 -84.5t-109.5 -102.5zM1504 227q-8 -12 -16.5 -29.5t-17.5 -37.5t-18 -41t-18 -39
q-5 -12 -10.5 -19t-14 -10.5t-20.5 -4.5t-29 -1q-27 0 -35.5 4.5t-8.5 17.5q0 17 7 42t16.5 51.5t20.5 51.5t19 42q-32 11 -61 48.5t-62 97.5q-13 24 -25.5 46t-29 39t-38.5 27t-54 10q-63 0 -118.5 -17.5t-97.5 -42t-66.5 -50.5t-24.5 -43q0 -24 50.5 -43t164.5 -40
q46 -9 78 -20.5t52.5 -31.5t30 -51t9.5 -79q0 -23 -6.5 -52t-17 -60t-24 -62.5t-27.5 -58.5q-59 -58 -130 -106.5t-151 -83.5t-167.5 -54.5t-178.5 -19.5q-125 0 -207.5 39t-131 102t-68 142t-19.5 158q0 58 10 113.5t25.5 107t35 96.5t38.5 82q7 14 14 22.5t17 13.5
t24.5 6.5t35.5 1.5q28 0 39 -5t11 -19q0 -11 -12.5 -37t-27 -63t-27 -83.5t-12.5 -98.5q0 -75 24 -132t68.5 -96t107.5 -59t141 -20q46 0 107.5 12t124.5 33.5t121 50t96 61.5q0 9 -6 14.5t-23.5 11t-47.5 10.5t-78 12q-32 4 -69 14t-68.5 29.5t-52.5 51.5t-21 82
q0 63 22.5 126t60.5 120.5t88.5 107t107 86t116 57.5t115.5 21q47 0 80.5 -15.5t57.5 -39t40.5 -51t29.5 -51.5q23 -43 54 -79t79 -48q37 44 86 96t106 104.5t118.5 102t124.5 87t124 60.5t116 23t111 -25.5t101 -65t73.5 -86.5t28.5 -90q0 -63 -17.5 -122t-45.5 -109.5
t-63.5 -90t-71.5 -63.5q-136 -57 -271.5 -82t-265.5 -25q-32 0 -67 1.5t-69 4t-65 6t-54 7.5z" />
    <glyph glyph-name="uniFEBC_uniFEF0.liga" unicode="&#xfebc;&#xfef0;" horiz-adv-x="2567" 
d="M1642 412q13 -2 27.5 -2.5t28.5 -2.5q33 -2 76 -1.5t81 2.5q127 6 232.5 30t171.5 58q5 14 5 33q0 24 -21 50.5t-54 48.5t-72.5 36t-76.5 14q-32 0 -80 -21.5t-102 -57.5t-110.5 -84.5t-105.5 -102.5zM1489 162q-8 -12 -17 -29.5t-18 -37.5t-18 -40.5t-17 -38.5
q-10 -25 -25 -31t-49 -6q-27 0 -35.5 5t-8.5 19q0 17 7 42t16.5 51.5t20.5 51t19 41.5q-32 11 -61 48.5t-62 97.5q-13 24 -25.5 46t-29 39t-38.5 27t-54 10q-63 0 -118.5 -15.5t-97.5 -36.5t-66.5 -43.5t-24.5 -37.5q0 -23 50.5 -39t164.5 -34q46 -9 78 -20.5t52.5 -30.5
t30 -48.5t9.5 -75.5q0 -23 -6.5 -51.5t-17 -58.5t-24 -60t-27.5 -56q-59 -56 -128 -103.5t-146 -81.5t-162 -53t-176 -19q-125 0 -207.5 39.5t-131 102.5t-68 141.5t-19.5 157.5q0 58 10 114t25.5 107t35 96t38.5 82q7 13 14 21.5t17 13t24.5 6.5t35.5 2q28 0 39 -4.5
t11 -18.5q0 -11 -12.5 -36.5t-27 -62.5t-27 -84t-12.5 -99q0 -151 84.5 -229.5t241.5 -78.5q46 0 107.5 11.5t124.5 31.5t120.5 47t96.5 59q0 8 -6 14t-23.5 11t-47.5 9.5t-78 10.5q-32 4 -69 13t-68.5 27.5t-52.5 49t-21 77.5q0 59 22.5 118.5t60.5 114t88.5 101.5
t107 81.5t116 54t115.5 19.5q47 0 80.5 -15.5t57.5 -38.5t40.5 -51t29.5 -52q22 -42 53.5 -78.5t79.5 -48.5q37 44 84.5 96t102 105t114 102t120 87t120 61t114.5 23t111 -25.5t101 -65t73.5 -86.5t28.5 -90q0 -37 -5.5 -70.5t-14.5 -62t-20 -50.5t-21 -35l8 -5q42 5 83 8
t95 3l-19 -264q-128 0 -242 6q-54 5 -92.5 14.5t-63.5 26.5q-57 -16 -110.5 -28t-105 -19.5t-102.5 -11.5t-105 -4q-32 0 -67 1.5t-69 3.5t-65 5.5t-54 7.5z" />
    <glyph glyph-name="uniFEC3_uniFEF0.liga" unicode="&#xfec3;&#xfef0;" horiz-adv-x="2366" 
d="M1429 453q66 3 138.5 9.5t143 16t136 22t119.5 28.5t92 34.5t54 40.5q-3 19 -21.5 45t-49 49t-71 39.5t-87.5 16.5q-45 0 -101.5 -25t-117 -67t-121 -96.5t-114.5 -112.5zM2113 328q-71 -36 -159.5 -60.5t-185 -40t-194.5 -24t-186 -12.5q-97 -2 -172 -0.5t-126 1.5v-4
q4 -5 22 -10.5t43 -14t53.5 -20t52.5 -28.5t39.5 -40t15.5 -54q0 -24 -7.5 -52.5t-19.5 -57.5t-27 -56.5t-30 -49.5q-45 -40 -116.5 -76t-162 -63t-198 -42.5t-224.5 -15.5q-115 0 -203 31.5t-148 89.5t-90.5 140t-30.5 183q0 57 10.5 112.5t27 106.5t35.5 95.5t36 78.5
q7 13 14 21.5t16.5 13t23.5 6.5t35 2q29 0 40.5 -5t11.5 -19q0 -11 -12.5 -37t-27 -62.5t-27 -82.5t-12.5 -97q0 -76 29.5 -133.5t81 -96t122.5 -58t155 -19.5q79 0 162.5 9.5t158 25.5t134.5 37t92 45q-8 11 -43.5 23t-84 23.5t-103 23t-100.5 23t-76 23.5t-30 23
q0 12 5 34.5t12.5 48.5t17.5 51.5t19 43.5q12 25 32 48t55 33q40 10 86 16.5t93.5 12t94.5 10.5t90 13l47 53q7 15 11.5 35.5t7.5 43.5t4.5 46.5t1.5 44.5q-2 52 -7.5 111t-12.5 119.5t-14 118.5t-11 108q-2 27 -2.5 53t1.5 51q-17 17 -29.5 47t-12.5 64q0 25 9.5 51.5
t24.5 52.5t34 50t39 44q10 10 18 10q10 0 12 -11q2 -25 9 -46.5t21 -43.5t37 -47t56 -56q17 -15 22.5 -26t5.5 -23q0 -15 -6.5 -36t-17 -41.5t-24 -36.5t-27.5 -21q2 -47 5 -105.5t5.5 -115.5t4.5 -107t2 -80q0 -26 -3 -53t-10 -50q51 54 114 114t132.5 109.5t143 82
t146.5 32.5q57 0 116.5 -27t108 -68.5t80 -92t31.5 -96.5q0 -51 -14.5 -105t-40.5 -104.5t-61 -94t-77 -71.5z" />
    <glyph glyph-name="uniFEC4_uniFEF0.liga" unicode="&#xfec4;&#xfef0;" horiz-adv-x="2419" 
d="M1429 433q66 3 138.5 9.5t143 16t136 22t119.5 28.5t92 34.5t54 40.5q-3 19 -21.5 45t-49 49t-71 39.5t-87.5 16.5q-45 0 -101.5 -25t-117 -67t-121 -96.5t-114.5 -112.5zM1963 250q-104 -29 -249 -49.5t-326 -25.5q-97 -4 -172 -0.5t-126 3.5v-4q5 -5 23.5 -10.5t44 -14
t53.5 -20t51.5 -28.5t39 -40t15.5 -53q0 -24 -7.5 -52.5t-20 -57.5t-27.5 -56t-30 -48q-46 -40 -117 -76t-161.5 -63t-197.5 -42.5t-225 -15.5q-115 0 -203 31.5t-148 89.5t-90.5 140.5t-30.5 183.5q0 57 10.5 112.5t27 106t35.5 94.5t36 78q7 14 14 22.5t17 13.5t23.5 6.5
t34.5 1.5q29 0 40 -5t11 -19q0 -11 -12 -37t-27 -62.5t-27 -82.5t-12 -98q0 -72 29.5 -128.5t81 -96t122.5 -60t155 -20.5q79 0 162.5 9.5t158 25t134 36.5t92.5 44q-8 11 -43.5 22.5t-84.5 22.5t-103 22.5t-100 23t-76 22.5t-30 22q0 12 5 34.5t13 48t17.5 51t18.5 43.5
q12 24 32 47.5t55 31.5q40 10 86 16.5t93.5 12t94.5 10t90 12.5l47 53q7 15 11.5 35.5t7.5 43.5t4.5 46.5t1.5 44.5q-2 52 -7.5 111.5t-12.5 120t-14 118.5t-11 108q-2 26 -2.5 52t1.5 51q-16 17 -29 47.5t-13 63.5q0 25 9.5 51.5t24.5 52.5t34.5 50t39.5 44q9 10 17 10
q10 0 12 -11q2 -25 8.5 -46t20.5 -43t37 -47t57 -57q17 -15 22.5 -26t5.5 -23q0 -15 -6.5 -36t-17 -41.5t-24 -36.5t-27.5 -21q1 -47 3.5 -100.5t5 -107.5t5 -105.5t3.5 -94.5q0 -26 -3 -53t-10 -50q51 54 114 114t132.5 110t143 82.5t146.5 32.5q38 0 77.5 -12.5t77 -33.5
t70.5 -49.5t57.5 -60t39 -65t14.5 -64.5q0 -59 -16.5 -122t-48.5 -112l7 -5q32 -14 78 -17t112 -3l-19 -264q-24 0 -56.5 1.5t-68.5 3.5t-72 5.5t-66 7.5q-26 3 -53 9t-53 15t-48.5 21t-38.5 27z" />
    <glyph glyph-name="uniFECB_uniFEF0.liga" unicode="&#xfecb;&#xfef0;" horiz-adv-x="1884" 
d="M1652 993q11 -10 18 -18.5t11.5 -19t6 -24.5t1.5 -35q0 -22 -5.5 -34.5t-18.5 -12.5q-9 0 -28 9.5t-45.5 21t-59 21t-69.5 9.5q-44 0 -86.5 -10t-79.5 -26.5t-65 -37.5t-43 -44q3 -27 27 -62t61 -67.5t82.5 -57t92.5 -30.5q37 4 77 13t82 21t84 25l84 26q20 6 33 0.5
t13 -29.5q0 -15 -8 -50t-20.5 -71t-27.5 -64.5t-28 -32.5q-84 -23 -174.5 -44.5t-178.5 -45.5q-80 -17 -161 -36.5t-172 -46.5q134 -33 197.5 -79.5t63.5 -115.5q0 -24 -7.5 -52.5t-20 -58t-27.5 -57.5t-30 -50q-45 -42 -119 -82t-166 -71t-198.5 -50t-216.5 -19
q-116 0 -204 31.5t-147.5 89.5t-90 140t-30.5 184q0 57 10.5 112.5t27 106.5t35.5 95.5t36 78.5q14 27 31 35.5t58 8.5q29 0 40.5 -5t11.5 -19q0 -11 -12.5 -37t-27 -62.5t-27 -82.5t-12.5 -97q0 -76 29 -133.5t81 -96.5t123 -58.5t154 -19.5q74 0 156.5 12t158.5 32.5
t137 46.5t93 54q-7 10 -33 19.5t-63.5 18.5t-82 17.5l-89 17t-85 16t-69.5 14.5q-5 5 -6 16t1 21q2 19 12 50.5t24 63.5q10 26 20.5 44.5t27.5 30.5q60 42 136.5 73.5t154.5 64.5q-15 11 -33.5 31t-34.5 45.5t-27 54t-11 56.5q0 46 14 96t39.5 98.5t60 92.5t76 77.5t88 53
t95.5 19.5q48 0 87.5 -10t72.5 -26.5t61 -38t54 -44.5z" />
    <glyph glyph-name="uniFECC_uniFEF0.liga" unicode="&#xfecc;&#xfef0;" horiz-adv-x="1765" 
d="M960 558q-17 0 -26 11.5t-9 39.5q0 22 6.5 55t17.5 64.5t25 57t30 34.5q29 16 58.5 29t62 23t68.5 15.5t78 5.5q57 0 114.5 -16t104.5 -43.5t76.5 -65.5t29.5 -82q0 -60 -31.5 -116.5t-83.5 -88.5q52 -27 127 -42t176 -15l-19 -264q-100 0 -175.5 11t-133.5 31t-101.5 48
t-79.5 63q-63 -20 -121.5 -44.5t-112.5 -47.5q127 -32 186 -77t59 -114q0 -23 -7.5 -51t-19.5 -57t-26.5 -56t-28.5 -48q-44 -42 -116 -81.5t-162 -69.5t-194 -48.5t-212 -18.5q-111 0 -197 30.5t-144.5 88t-89 140t-30.5 186.5q0 57 10.5 112.5t27 106.5t35.5 95t36 78
q7 14 14 22.5t17 13.5t23.5 6.5t34.5 1.5q29 0 40.5 -5t11.5 -19q0 -11 -12.5 -36.5t-27 -62t-27 -82.5t-12.5 -98q0 -73 28 -130t78 -96t118.5 -59.5t149.5 -20.5q72 0 152 12t154 31.5t133.5 45t89.5 53.5q-8 9 -32 18t-58 18t-75.5 17.5t-83 16.5t-79.5 15.5t-67 14.5
q-4 6 -4.5 17.5t1.5 21.5q3 15 13.5 47t23.5 64q10 25 21 44t28 31q71 45 159.5 82t179.5 71q-13 12 -31 26.5t-38 26.5t-40.5 20t-38.5 8q-14 0 -24.5 -7.5t-27.5 -7.5z" />
    <glyph glyph-name="uniFEDB_uniFEF0.liga" unicode="&#xfedb;&#xfef0;" horiz-adv-x="1626" 
d="M1189 391q-6 -15 -17.5 -28t-25 -24t-27.5 -19.5t-26 -14.5q48 -14 94 -35.5t72 -45.5q17 -17 27 -36t10 -42q0 -13 -1.5 -33t-6.5 -41q-13 -45 -30 -91t-50 -98q-59 -60 -136 -109.5t-167 -85.5t-190 -55.5t-206 -19.5q-131 0 -218 39t-138.5 102t-72.5 142t-21 158
q0 58 9.5 113.5t25 106.5t35 95.5t39.5 82.5q7 13 14 21.5t16.5 13t23.5 6.5t35 2q29 0 40.5 -4.5t11.5 -18.5q0 -12 -12.5 -37.5t-27 -62.5t-27 -82.5t-12.5 -97.5q0 -75 25.5 -133t73.5 -97.5t116 -59.5t154 -20q61 0 133.5 14t143 38t133.5 56.5t106 70.5
q-17 19 -54 38.5t-87.5 35.5t-111.5 27t-126 14q-13 0 -13 17q0 29 29 107q20 52 33.5 70.5t24.5 20.5q42 5 83.5 14.5t78.5 25t65.5 36.5t44.5 50q-11 71 -70.5 135.5t-156.5 124.5l-8 -31q-4 -13 -14.5 -16.5t-24.5 4.5l-58 36t-56 46q-28 21 -39.5 58.5t-11.5 89.5
q0 30 4.5 69t13 77.5t20 71t25.5 50.5q16 22 62.5 52t113 64.5t147.5 70.5t165 69q100 40 197 77t208 81q11 5 19 0.5t8 -18.5q0 -15 -5.5 -43.5t-21.5 -74.5q-22 -61 -40 -94t-43 -41q-99 -35 -188.5 -68t-173.5 -67t-165.5 -68.5t-164.5 -72.5q103 -64 172.5 -126
t119.5 -131q55 -75 77 -146t22 -140q-1 -29 -2.5 -50.5t-4 -39.5t-7 -35.5t-12.5 -39.5z" />
    <glyph glyph-name="uniFEDC_uniFEF0.liga" unicode="&#xfedc;&#xfef0;" horiz-adv-x="1617" 
d="M1223 359q-19 -32 -46 -57.5t-56 -36.5q48 -12 81.5 -29t57.5 -39q17 -17 27 -35.5t10 -41.5q0 -12 -1.5 -31t-6.5 -40q-14 -45 -30.5 -88.5t-49.5 -93.5q-60 -58 -137 -106.5t-166 -83t-189.5 -54t-206.5 -19.5q-132 0 -218.5 39t-138.5 102t-73 142t-21 158
q0 59 10 114t25.5 105t35 95t38.5 84q7 13 14 21.5t17 13t24 6.5t35 2q29 0 40 -4.5t11 -18.5q0 -12 -12.5 -38t-27 -62.5t-27 -82.5t-12.5 -98q0 -75 25.5 -132.5t73.5 -97t116 -60t154 -20.5q62 0 134 13.5t142.5 37t133.5 55t106 67.5q-17 19 -54 37.5t-88 33.5
t-111.5 25.5t-124.5 13.5q-14 2 -14 18q0 25 30 102q20 50 34 68.5t25 20.5q51 10 99.5 22.5t89 30.5t72 42t48.5 58q-6 34 -24.5 65t-47 61t-66.5 60t-83 60q-54 36 -105.5 69t-102.5 64q-17 11 -27 24.5t-10 33.5q0 30 5 65.5t13.5 72.5t20 73t25.5 67q14 21 62.5 52
t117 65.5t149 69.5t157.5 66q100 41 201 80t207 81q12 5 19.5 -1.5t7.5 -16.5q0 -16 -5.5 -44t-21.5 -74q-22 -62 -40 -95t-42 -42q-101 -37 -190 -70t-173 -66t-165 -67t-165 -71q88 -49 170 -105.5t145 -110.5q44 -39 79 -76t64 -72t54.5 -67t50.5 -61q24 -27 48 -59
t51.5 -59.5t60.5 -46t75 -18.5l-20 -264q-61 0 -107 13t-86 44t-79 82t-87 127l-16 -3q-2 -14 -6 -29t-12 -35z" />
    <glyph glyph-name="uniFEDF_uniFEF0.liga" unicode="&#xfedf;&#xfef0;" horiz-adv-x="1375" 
d="M1183 374q-17 -27 -44.5 -43t-50.5 -26q24 -7 49 -16t47.5 -19.5t42 -22t32.5 -23.5q17 -17 27 -36t10 -42q0 -70 -26 -135t-62 -128q-59 -60 -136 -109.5t-167 -85.5t-190 -55.5t-206 -19.5q-131 0 -218 39t-138.5 102t-72.5 142t-21 158q0 59 9.5 114t25 105t35 95
t39.5 84q7 13 14 21.5t16.5 13t23.5 6.5t35 2q29 0 40.5 -5t11.5 -19q0 -12 -12.5 -37.5t-27 -62t-27 -82.5t-12.5 -98q0 -75 25.5 -132.5t73.5 -97t116 -59.5t154 -20q61 0 133.5 14t143 38t133.5 56.5t106 70.5q-18 19 -54 38t-86 34.5t-111 26.5t-128 16q-14 0 -14 17
q0 27 30 107q20 52 33.5 70.5t24.5 20.5q37 4 75 13t72.5 22.5t64 30t50.5 36.5q-1 26 -1.5 51t-2.5 51q-5 50 -13 113t-16.5 129t-16 132t-10.5 122q-3 49 0 90q-17 17 -29 48t-12 63q0 25 9.5 51.5t25 52t35 50t39.5 45.5q7 9 14 9q11 0 13 -12q3 -24 9 -44t19.5 -41.5
t36.5 -46.5t59 -59q17 -17 22.5 -27.5t5.5 -22.5q0 -15 -7 -36t-17.5 -41t-24.5 -36t-27 -21q3 -46 7 -98t8 -105t7.5 -104t6.5 -95t4.5 -78t1.5 -52q0 -34 -3 -66.5t-8 -60t-11.5 -48.5t-12.5 -32z" />
    <glyph glyph-name="uniFEE0_uniFEF0.liga" unicode="&#xfee0;&#xfef0;" horiz-adv-x="1591" 
d="M1591 160q-59 0 -112 17.5t-96.5 53t-75 89.5t-48.5 127h-14q-17 -48 -38 -86.5t-56 -61.5q-21 -14 -47.5 -27.5t-46.5 -21.5q47 -12 90.5 -23.5t77.5 -26.5t54 -36.5t20 -54.5q0 -31 -7.5 -63.5t-20 -64t-29 -61.5t-34.5 -57q-59 -56 -136 -102t-167 -79t-190 -51.5
t-206 -18.5q-115 0 -195.5 30.5t-133 81t-80 115.5t-36.5 135q-3 20 -4 39.5t-1 40.5q0 59 9.5 113.5t25 104.5t35 95t39.5 84q7 13 14 21.5t16.5 13t23.5 6.5t35 2q29 0 40.5 -5t11.5 -19q0 -11 -12.5 -36.5t-27 -62.5t-27 -83t-12.5 -98q0 -21 1.5 -40.5t6.5 -38.5
q26 -112 120 -170.5t241 -58.5q61 0 133.5 12.5t143 34t133.5 51t106 62.5q-23 23 -57 36t-72 23q-41 10 -101.5 24t-150.5 19q-14 0 -14 15q0 13 7 36.5t23 58.5q19 46 31.5 62.5t24.5 19.5q66 14 114.5 30.5t98.5 41.5q38 17 65 35t47.5 38t36 42.5t30.5 47.5q5 11 10 24
t9 28q12 46 18 106t6 120q0 10 -1.5 43.5t-4.5 78.5t-5.5 96.5t-5.5 97.5t-4.5 80.5t-1.5 47.5q0 11 8 28.5t21 38.5t30 42t34 38.5t32.5 28.5t26.5 11q9 0 14 -4.5t5 -9.5q4 -93 9.5 -193t12.5 -203t14 -207.5t14 -205.5q3 -47 14 -89t32 -74t52 -51t74 -19z" />
    <glyph glyph-name="uniFEE3_uniFEF0.liga" unicode="&#xfee3;&#xfef0;" horiz-adv-x="1643" 
d="M1204 950q38 4 81 -5t85 -27t81 -42t68.5 -49.5t47 -50t17.5 -43.5q0 -31 -10.5 -72t-26.5 -78.5t-33.5 -66t-31.5 -34.5q-23 -9 -53.5 -17t-65.5 -16t-73.5 -18t-76.5 -23q-39 -13 -77 -28t-71.5 -31t-60.5 -31.5t-43 -28.5q51 -18 108 -41t105.5 -50.5t80 -61.5
t31.5 -74q0 -25 -7.5 -54.5t-19.5 -60t-26.5 -59t-28.5 -50.5q-44 -44 -116 -85t-162 -73t-194 -51t-212 -19q-124 0 -211.5 37t-143 98.5t-81 142t-25.5 167.5q0 57 10.5 112.5t27 106.5t35.5 95t36 78q7 13 14 21.5t16.5 13t23.5 6.5t35 2q29 0 40.5 -4.5t11.5 -18.5
q0 -11 -12.5 -37t-27 -62.5t-27 -82.5t-12.5 -98q0 -75 28 -132.5t78 -96.5t118.5 -58.5t149.5 -19.5q71 0 151.5 12.5t154.5 33.5t133.5 48t89.5 56q-11 16 -52.5 30.5t-96 27.5t-115 23t-109.5 16q-26 8 -26 44q0 15 5 36t12.5 43t16.5 43.5t17 38.5q10 22 24 38.5
t32 31.5t40 30t47 32q15 10 33.5 21t39.5 22.5t42 22.5t41 20q-32 37 -47 76t-15 74q0 31 14 73t38.5 80.5t58 66t71.5 30.5z" />
    <glyph glyph-name="uniFEE4_uniFEF0.liga" unicode="&#xfee4;&#xfef0;" horiz-adv-x="1990" 
d="M1990 160q-63 0 -110 20.5t-89 68.5q-8 -20 -21 -44t-30 -45.5t-38.5 -36t-46.5 -14.5q-41 0 -92 19t-103 49t-100.5 67t-85.5 74q-13 -20 -35 -36.5t-49.5 -29t-58.5 -21.5t-62 -14q106 -28 161.5 -72.5t55.5 -110.5q0 -23 -7.5 -50t-19.5 -55.5t-26.5 -55.5t-28.5 -48
q-45 -41 -116.5 -79.5t-161.5 -68.5t-194 -48t-212 -18q-124 0 -211.5 36.5t-143 98t-81 141.5t-25.5 168q0 57 10.5 112.5t27 106.5t35.5 95.5t36 78.5q7 13 14 21.5t16.5 13.5t23.5 6.5t35 1.5q29 0 40.5 -5t11.5 -19q0 -11 -12.5 -36.5t-27 -62t-27 -82.5t-12.5 -98
q0 -75 28 -132t78 -96t118.5 -58.5t149.5 -19.5q71 0 151.5 11.5t154.5 31t133.5 45t89.5 52.5q-11 13 -51 24.5t-95 21.5t-115.5 20t-111.5 20q-17 5 -23 16.5t-6 24.5q0 11 8.5 37.5t20.5 56t26 54t26 31.5q35 17 93.5 33.5t133.5 30.5q58 11 104 35t77 75q14 24 33 60
t33 66q21 46 48.5 85.5t59 68.5t67 45.5t72.5 16.5q48 0 79 -21t58 -60t57.5 -93.5t77.5 -121.5q19 -30 35 -53t37 -38.5t52 -24t80 -8.5zM1648 365q6 1 9 7t4 12q-6 31 -20 70.5t-35 76t-47 64t-56 35.5q-14 0 -30.5 -6.5t-33 -20t-30 -34t-20.5 -48.5q21 -29 56 -56
t73 -48t73 -35t57 -17z" />
    <glyph glyph-name="uniFEEB_uniFEF0.liga" unicode="&#xfeeb;&#xfef0;" horiz-adv-x="1988" 
d="M1125 446q-62 50 -62 152q0 45 15 89t39 84t55 74.5t64 60.5v5q-21 4 -32 3.5t-22 4.5q-19 7 -19 26q0 7 6.5 29.5t16 50.5t21.5 58.5t23 54.5q15 29 27 47t36 18q13 0 34.5 -8t43 -19t41 -22.5t30.5 -18.5q59 -37 118 -79.5t113 -91t100.5 -102.5t81 -113t54 -124
t19.5 -134q0 -50 -16.5 -96t-44 -83.5t-63.5 -64.5t-75 -39q-38 0 -87.5 8t-102.5 22t-106.5 33t-99.5 42q-69 -32 -125 -56.5t-110 -40.5q57 -12 94.5 -29t60 -38.5t32 -48.5t9.5 -58q0 -24 -8.5 -52.5t-22 -58t-29.5 -57.5t-30 -50q-44 -43 -116 -83.5t-162 -71.5
t-194 -50t-212 -19q-124 0 -211.5 36.5t-143 98t-81 142t-25.5 168.5q0 57 10.5 112.5t27 106.5t35.5 95.5t36 78.5q7 13 14 21.5t16.5 13t23.5 6.5t35 2q29 0 40.5 -5t11.5 -19q0 -11 -12.5 -36.5t-27 -62t-27 -82.5t-12.5 -98q0 -75 28 -132t78 -96t118.5 -58.5
t149.5 -19.5q71 0 151.5 12t154.5 32.5t133.5 46.5t89.5 55q-12 16 -52.5 29t-95 24.5t-114.5 21.5t-111 20q-17 6 -23 15.5t-6 24.5t7 39t24 69q15 40 28 57t30 22q69 20 144.5 44.5t160.5 61.5zM1391 821q-26 0 -55.5 -10.5t-55 -30t-45 -46t-26.5 -58.5q5 -38 36.5 -67
t105.5 -57q23 11 45.5 26t40.5 33t31 38.5t18 43.5q-1 18 -8.5 40t-20.5 41.5t-30 33t-36 13.5zM1797 489q-3 15 -16 41.5t-35.5 58t-54 65t-71.5 63.5l-9 -3q4 -13 5 -26.5t1 -23.5q0 -19 -5 -42.5t-14 -47.5t-21 -46t-26 -37q29 -10 60.5 -17.5t69.5 -10.5q29 -3 62 1.5
t54 24.5z" />
    <glyph glyph-name="uniFEEC_uniFEF0.liga" unicode="&#xfeec;&#xfef0;" horiz-adv-x="2056" 
d="M1125 646q-62 49 -62 149q0 45 15 88.5t40.5 83t58.5 74t68 61.5v5q-22 3 -33.5 3t-21.5 4q-19 7 -19 24q0 8 6.5 28.5t16 47t21.5 54t23 50.5q15 29 27 47t35 18q13 0 33.5 -8.5t42 -20.5t41 -24t30.5 -19q87 -54 173 -120.5t154.5 -145t111 -168.5t42.5 -192
q0 -69 -30 -128t-73 -93q11 -23 78 -31.5t173 -8.5l-20 -264q-58 0 -111 5t-113 21q-74 20 -114.5 70.5t-40.5 124.5v30q-22 0 -63.5 6.5t-90.5 19t-99.5 31.5t-90.5 44q-69 -32 -125 -58.5t-110 -42.5q57 -14 94.5 -31.5t60 -39.5t32 -49.5t9.5 -60.5q0 -25 -8.5 -54.5
t-22 -60t-29.5 -60t-30 -54.5q-44 -45 -116 -86.5t-162 -74t-194 -52t-212 -19.5q-124 0 -211.5 36.5t-143 98t-81 142t-25.5 168.5q0 57 10.5 112.5t27 106.5t35.5 95t36 78q7 13 14 21.5t16.5 13t23.5 6.5t35 2q29 0 40.5 -4.5t11.5 -18.5q0 -11 -12.5 -37t-27 -62.5
t-27 -82.5t-12.5 -98q0 -75 28 -132t78 -96t118.5 -58.5t149.5 -19.5q72 0 152 13t153.5 34t133.5 49t90 58q-12 17 -52.5 31t-95 25.5t-114.5 22.5t-111 22q-17 6 -23 16t-6 25t7 41t24 72q15 43 29 61t28 23q69 23 145 48.5t161 64.5zM1393 1005q-27 0 -56.5 -10.5
t-55.5 -30t-45.5 -46.5t-26.5 -59q5 -36 36.5 -65.5t105.5 -57.5q48 23 87 58t50 82q-1 18 -8.5 40t-20.5 42t-30 33.5t-36 13.5zM1797 687q-3 16 -16 43t-34.5 59.5t-52 67t-69.5 64.5l-9 -4q6 -26 6 -52q0 -18 -5.5 -42t-15 -48.5t-22.5 -47t-28 -37.5q29 -10 60.5 -18
t69.5 -11q15 -1 31 -1t31.5 2.5t29 8.5t24.5 16z" />
    <glyph glyph-name="uniFBAC_uniFEF0.liga" unicode="&#xfbac;&#xfef0;" horiz-adv-x="1988" 
d="M1125 446q-62 53 -62 162q0 48 12 97t33 94t49 85t60 70q27 26 53.5 49.5t56 41t62.5 28t72 10.5q44 0 73.5 -14.5t49 -34t30 -39.5t17.5 -32q41 -7 84 -32.5t70 -60.5q65 -81 104 -173.5t39 -196.5q0 -42 -11.5 -81.5t-31 -74t-46 -63t-56.5 -47.5q-13 -8 -36.5 -14.5
t-44.5 -6.5q-33 0 -77.5 7t-94 20t-100.5 31.5t-97 41.5q-69 -32 -125 -56.5t-110 -40.5q57 -12 94.5 -29t60 -38.5t32 -48.5t9.5 -58q0 -24 -8.5 -52.5t-22 -58t-29.5 -57.5t-30 -50q-44 -43 -116 -83.5t-162 -71.5t-194 -50t-212 -19q-124 0 -211.5 36.5t-143 98t-81 142
t-25.5 168.5q0 57 10.5 112.5t27 106.5t35.5 95.5t36 78.5q7 13 14 21.5t16.5 13t23.5 6.5t35 2q29 0 40.5 -5t11.5 -19q0 -11 -12.5 -36.5t-27 -62t-27 -82.5t-12.5 -98q0 -75 28 -132t78 -96t118.5 -58.5t149.5 -19.5q71 0 151.5 12t154.5 32.5t133.5 46.5t89.5 55
q-12 16 -52.5 29t-95 24.5t-114.5 21.5t-111 20q-17 6 -23 15.5t-6 24.5t7 39t24 69q15 40 28 57t30 22q69 20 144.5 44.5t160.5 61.5zM1393 838q-27 0 -56.5 -11.5t-55.5 -32t-45.5 -48.5t-26.5 -62q5 -39 36.5 -71t105.5 -61q24 12 46.5 28t41 35t31.5 41t18 46
q-1 19 -8.5 42.5t-20.5 44.5t-30 35t-36 14zM1797 489q-3 18 -13.5 45.5t-29.5 60.5t-47.5 69t-67.5 71l-8 -3q3 -14 4.5 -30.5t1.5 -27.5q0 -21 -7.5 -46t-20 -49.5t-28 -47t-30.5 -40.5q29 -10 60.5 -17.5t69.5 -10.5q29 -3 62 1.5t54 24.5z" />
    <glyph glyph-name="uniFBAD_uniFEF0.liga" unicode="&#xfbad;&#xfef0;" horiz-adv-x="2196" 
d="M1412 132q1 11 5 34t7 38q-9 -2 -45.5 -6.5t-83 -9.5t-96.5 -8.5t-86 -3.5q35 -11 68 -24t58 -29.5t40 -36.5t15 -44t-7 -54.5t-19 -60.5t-28.5 -57.5t-35.5 -46.5q-45 -43 -116.5 -83.5t-161.5 -71.5t-194 -49.5t-212 -18.5q-124 0 -211.5 36.5t-143 99t-81 144.5
t-25.5 172q0 59 10.5 116.5t27 109.5t35.5 97t36 79q7 14 13.5 22.5t16.5 13.5t24 6.5t35 1.5q29 0 40.5 -5t11.5 -20q0 -11 -12.5 -37t-27 -62.5t-27 -83.5t-12.5 -100q0 -78 28 -137.5t78 -99.5t118.5 -60.5t149.5 -20.5q72 0 152 12.5t153.5 33t133.5 47.5t90 56
q-12 14 -52 27.5t-94 25.5t-114.5 23t-111.5 21q-18 4 -24 14.5t-6 26.5q0 23 30 109q13 38 25.5 54.5t25.5 18.5q187 24 357.5 42.5t320.5 48.5q14 48 37 102.5t51 110t60 110t65 103.5t64.5 90.5t59.5 69.5q23 23 41 23q19 0 38.5 -26t37 -63t32 -77.5t23.5 -69.5
q12 -45 16 -87t0 -77q-8 -57 -35 -118.5t-63 -116.5q68 9 147 13.5t151 4.5l-19 -264q-16 0 -37.5 -0.5t-44.5 -1t-45.5 -1.5t-40.5 -1q26 -23 45.5 -61.5t19.5 -86.5q0 -54 -17.5 -109.5t-49 -101t-75 -74t-95.5 -28.5q-86 0 -154 35t-118 95t-81 139t-43 167h-12h-14
t-13 0.5t-9 0.5zM1808 755q-2 0 -5.5 -3t-8.5 -7q-20 -17 -44 -48.5t-48.5 -72t-47 -86.5t-38.5 -90q58 12 105.5 24t83 27t58 34t30.5 45q-1 36 -11.5 68t-24.5 56t-28 38.5t-21 14.5zM1965 -33q-11 40 -44 69.5t-81 49t-107.5 30t-122.5 13.5q15 -41 44.5 -79t67.5 -67
t82 -46.5t88 -17.5q35 0 52 12t21 36z" />
    <glyph glyph-name="uniFBA9_uniFEF0.liga" unicode="&#xfba9;&#xfef0;" horiz-adv-x="2033" 
d="M2052 424l-19 -264h-57q-36 0 -67 -3.5t-53.5 -13t-35 -27.5t-12.5 -48q0 -35 7.5 -64.5t18 -54t23 -45.5t23.5 -39q14 -20 4.5 -60.5t-45.5 -91.5q-21 -30 -38 -48.5t-30.5 -29t-24 -14.5t-16.5 -4q-9 0 -18 3t-21 12q-82 54 -138 113t-90 121.5t-48.5 126t-14.5 125.5
q0 54 -12.5 116.5t-41.5 116t-76.5 89t-117.5 35.5q-71 0 -134 -16.5t-110 -39t-74.5 -46.5t-27.5 -39q0 -24 50.5 -41t164.5 -37q45 -8 77.5 -19.5t52.5 -31t29.5 -50.5t9.5 -77q0 -26 -7.5 -60t-19 -67t-26 -61t-29.5 -43q-55 -54 -122 -99.5t-144 -78.5t-162.5 -51
t-178.5 -18q-130 0 -215 39.5t-135.5 102.5t-71 141.5t-20.5 156.5q0 58 9.5 114t25.5 107.5t35 97t39 82.5q7 13 14 21.5t17 13.5t24.5 6.5t35.5 1.5q28 0 39 -5t11 -19q0 -11 -12.5 -37t-27 -63t-27 -83.5t-12.5 -99.5q0 -75 25 -132t71 -95.5t112 -58t147 -19.5
q51 0 112 11.5t121.5 32t114.5 48t91 59.5q0 8 -6.5 14.5t-23.5 12t-47.5 11.5t-78.5 13q-32 4 -69 13t-68.5 28t-53 50t-21.5 80q0 59 24.5 118t67 113t99 100.5t119.5 81t129.5 54t129.5 19.5q84 0 144 -39t98 -108.5t56 -166.5t18 -213q0 -81 33 -149.5t95 -104.5l7 6
q-4 12 -8 32t-7.5 45t-5.5 52.5t-2 53.5q0 57 25 108.5t68 90.5t101.5 62.5t125.5 23.5h79z" />
    <glyph glyph-name="uniFEA3_uniFBAF.liga" unicode="&#xfea3;&#xfbaf;" horiz-adv-x="1945" 
d="M400 568q-11 0 -15 9t-4 35q0 24 2 36.5t6 21.5q40 104 97.5 151t126.5 47q52 0 101.5 -11.5t100.5 -30.5t106 -42.5t118 -47.5q111 -46 228 -78t241 -32q17 0 17 -20q0 -17 -5.5 -42.5t-23.5 -68.5q-21 -58 -38 -89t-34 -31q-24 0 -53 5t-54 5q-54 0 -113.5 -8
t-117.5 -19.5t-111.5 -25t-93.5 -25.5q-59 -17 -128.5 -42t-139.5 -53t-135.5 -58t-116 -56t-81 -47t-30.5 -32q0 -20 32 -33.5t86 -22t125 -12.5t149 -4h638q51 0 117.5 -1t135.5 -3.5t133.5 -8t112.5 -14.5q12 -2 21 -6t14.5 -12.5t8.5 -24t3 -40.5q0 -38 -2.5 -64
t-10.5 -42.5t-23 -23.5t-40 -7h-1264q-92 0 -170.5 12.5t-135.5 36.5t-89 59t-32 80q0 28 10.5 63t27.5 72t38.5 74.5t43.5 69.5t42.5 57t35.5 38q18 14 44 29t56 29.5t63 28.5t64 26q117 45 247 79.5t267 54.5v5q-56 17 -113 37t-112.5 37.5t-106.5 29.5t-94 12
q-46 0 -74 -9.5t-45.5 -21.5t-29 -21.5t-23.5 -9.5z" />
    <glyph glyph-name="uniFEA4_uniFBAF.liga" unicode="&#xfea4;&#xfbaf;" horiz-adv-x="1775" 
d="M1267 493q-84 -17 -162 -39.5t-135 -42.5q-67 -24 -146 -58t-159 -72.5t-155 -78.5t-132.5 -75.5t-92.5 -64t-35 -43.5q0 -20 32 -33.5t86 -22t125 -12.5t149 -4h586q51 0 117.5 -1t135.5 -3.5t133.5 -8t112.5 -14.5q12 -2 21 -6t15 -12.5t9 -24t3 -40.5q0 -38 -2.5 -64
t-10.5 -42.5t-23 -23.5t-40 -7h-1213q-92 0 -170.5 12.5t-135.5 36.5t-89 59t-32 80q0 28 10.5 63t28 72t39 74.5t43.5 69.5t42 57t35 38q22 19 53.5 40t68 41.5t76.5 40.5t78 37q141 64 297.5 111t322.5 74v4q-56 12 -113 26.5t-112 27.5t-106 21.5t-94 8.5q-46 0 -74 -10
t-45.5 -21.5t-29 -21.5t-23.5 -10t-16 9.5t-4 34.5q0 24 2 36.5t6 21.5q41 104 98.5 151t126.5 47q52 0 101.5 -8.5t100.5 -22.5t106 -32t117 -37q113 -34 229 -58.5t240 -24.5q17 0 17 -20q0 -17 -4 -41t-21 -66q-22 -56 -40 -85.5t-35 -29.5q-25 0 -55.5 5t-56.5 5
q-20 0 -41 -2l-42 -4q6 -27 42.5 -44t93.5 -26.5t128.5 -12.5t145.5 -3l-20 -264q-85 0 -155.5 5.5t-136.5 17.5q-51 9 -93.5 23t-73 36t-47 54.5t-16.5 79.5q0 21 3.5 50.5t12.5 63.5z" />
    <glyph glyph-name="uniFEB3_uniFBAF.liga" unicode="&#xfeb3;&#xfbaf;" horiz-adv-x="1935" 
d="M1398 743q2 10 14.5 15.5t47.5 5.5q34 0 45.5 -5t11.5 -15q0 -17 -3 -39t-8 -44.5t-10.5 -43.5t-10.5 -37q13 -28 39 -50.5t55.5 -38.5t58.5 -24.5t49 -8.5q57 0 57 74q0 25 -8 50.5t-18 47t-18 37t-8 21.5q0 14 11 38.5t39 63.5q26 34 39.5 47t24.5 13q13 0 20 -16
q8 -20 16.5 -48t16 -61.5t12 -71t4.5 -76.5q0 -71 -15.5 -137.5t-42 -117.5t-61.5 -81.5t-74 -30.5q-40 0 -84 13t-85.5 32.5t-76.5 43t-56 44.5q-20 -26 -44.5 -52t-58 -47t-78 -34t-102.5 -13q-47 0 -83 11.5t-63 30.5t-46 44.5t-32 53.5q-24 52 -37 85t-30 33
q-9 0 -24 -15.5t-34 -40t-41 -54.5t-45 -58.5t-45.5 -52.5t-43.5 -37t-52.5 -27.5t-67.5 -29.5t-72 -31t-65.5 -31.5t-47.5 -30.5t-18 -28q0 -21 32 -34.5t86 -21.5t125 -11.5t149 -3.5h580q60 0 127 -1t134 -4t128.5 -8.5t109.5 -14.5q12 -2 21 -5.5t14.5 -12.5t8.5 -24.5
t3 -40.5q0 -37 -2.5 -63t-10.5 -42.5t-23 -24t-40 -7.5h-1206q-93 0 -171.5 12.5t-135 36.5t-88.5 59t-32 80q0 33 10.5 70t27.5 74t38.5 73t43.5 66.5t42.5 54t35.5 36.5q14 12 41.5 27.5t62 33t72.5 36.5t71.5 36.5t60 34t38.5 29.5q19 19 40 48t43.5 61t46 64t47 58
t47.5 42t47 16q20 0 36 -17t30 -42t26.5 -54.5t24.5 -53.5q27 -57 63.5 -92t98.5 -35q47 0 86 21.5t70 60t53 91.5t36 116z" />
    <glyph glyph-name="uniFEB4_uniFBAF.liga" unicode="&#xfeb4;&#xfbaf;" horiz-adv-x="2095" 
d="M1435 288q-21 -25 -52 -48t-72 -41t-91.5 -28.5t-111.5 -10.5q-44 0 -76.5 10.5t-58 29.5t-45.5 46t-39 61q-15 27 -25.5 51.5t-19.5 43t-18 29.5t-22 11q-8 0 -22.5 -14.5t-33 -37.5t-40.5 -51t-45 -55.5t-46 -50.5t-44 -36t-52.5 -27.5t-67.5 -29.5t-72 -31
t-65.5 -31.5t-47.5 -30.5t-18 -28q0 -21 32 -34.5t86 -21.5t125 -11.5t149 -3.5h577q60 0 127.5 -1t135 -4t129 -8.5t109.5 -14.5q12 -2 21 -5.5t15 -12.5t9 -24.5t3 -40.5q0 -37 -2.5 -63t-10.5 -42.5t-23 -24t-40 -7.5h-1206q-93 0 -171.5 12.5t-135 36.5t-88.5 59t-32 80
q0 33 10.5 70t27.5 74t38.5 73t43.5 66.5t42.5 54t35.5 36.5q16 14 44.5 30.5t63 34t71.5 35.5t70 35t59 33t38 29q19 19 40.5 46t43.5 56.5t45 58t46 51t46 36.5t46 14q24 0 41 -15t30 -39t25 -53t26 -56q34 -66 75 -104t87 -38q69 0 120.5 19t88.5 52.5t60 78.5t36 98
q2 10 13.5 15.5t46.5 5.5t46.5 -5.5t11.5 -16.5q0 -17 -3 -37t-7.5 -40.5t-9.5 -39.5t-9 -33q6 -21 20 -43t34 -39t44 -28t50 -11q23 0 42 27.5t35 91.5q8 41 13 84.5t9 69.5q2 14 14 27.5t47 27.5q34 15 47 17.5t16 -3.5q3 -3 4 -9t0 -11q-2 -45 -6.5 -82t-9.5 -79
q18 -63 66.5 -96t140.5 -33l-19 -264q-24 0 -57 5t-67.5 21.5t-68 47t-58.5 80.5h-6q-31 -85 -71 -132t-94 -47q-40 0 -75 13t-65 34.5t-54.5 49t-43.5 56.5z" />
    <glyph glyph-name="uniFEBB_uniFBAF.liga" unicode="&#xfebb;&#xfbaf;" horiz-adv-x="2172" 
d="M1274 447q13 -2 27.5 -2.5t29.5 -2.5q32 -2 75 -2t81 2q63 3 125 11t117.5 19.5t102 26.5t79.5 32q9 21 3 46q-6 23 -27.5 47t-52.5 43.5t-68 32t-73 12.5q-33 0 -83.5 -21t-108.5 -57t-117.5 -84.5t-109.5 -102.5zM1122 196q-8 -12 -17 -29t-18 -37t-18 -41t-17 -39
q-5 -12 -10.5 -19.5t-14 -11t-20.5 -4.5t-30 -1q-26 0 -34.5 4.5t-8.5 18.5q0 17 6.5 42t16.5 51.5t20.5 51.5t18.5 42q-17 6 -33 15t-32.5 23t-32 35.5t-30.5 52.5q-11 21 -19 40t-15 33.5t-13.5 23t-14.5 8.5q-9 0 -24 -15.5t-34 -40t-41 -54.5t-45 -58.5t-45.5 -52.5
t-43.5 -37t-52.5 -27.5t-67.5 -29.5t-72 -31t-65.5 -31.5t-47.5 -30.5t-18 -28q0 -21 32 -34.5t86 -21.5t125 -11.5t149 -3.5h579q61 0 128.5 -1t134 -4t127.5 -8.5t109 -14.5q12 -2 21 -5.5t15 -12.5t9 -24.5t3 -40.5q0 -37 -2.5 -63t-10.5 -42.5t-23 -24t-40 -7.5h-1206
q-93 0 -171.5 12.5t-135 36.5t-88.5 59t-32 80q0 33 10.5 70t27.5 74t38.5 73t43.5 66.5t42.5 54t35.5 36.5q13 12 40.5 28t61.5 33.5t71.5 36t71.5 36.5t61 34t40 29q19 19 40 48t43.5 61t46 64t47 58t47.5 42t47 16q21 0 37.5 -15.5t30.5 -39t25.5 -51t22.5 -51.5
q20 -45 52 -80t81 -47q37 44 86 96t105.5 104.5t118.5 102t124.5 87t123.5 60.5t116 23t111 -25.5t101.5 -65t74 -86.5t28.5 -90q0 -63 -17.5 -122t-45.5 -109.5t-63.5 -90t-71.5 -63.5q-138 -58 -272.5 -82.5t-264.5 -24.5q-32 0 -67.5 1.5t-70 3.5t-65 5.5t-52.5 7.5z" />
    <glyph glyph-name="uniFEBC_uniFBAF.liga" unicode="&#xfebc;&#xfbaf;" horiz-adv-x="2217" 
d="M1274 447q13 -2 27.5 -2.5t29.5 -2.5q32 -2 75 -2t81 2q63 3 125 11t117.5 19.5t102 26.5t79.5 32q9 21 3 46q-6 23 -27.5 47t-52.5 43.5t-68 32t-73 12.5q-33 0 -83.5 -21t-108.5 -57t-117.5 -84.5t-109.5 -102.5zM1122 196q-8 -12 -17 -29t-18 -37t-18 -41t-17 -39
q-5 -12 -10.5 -19.5t-14 -11t-20.5 -4.5t-30 -1q-26 0 -34.5 4.5t-8.5 18.5q0 17 6.5 42t16.5 51.5t20.5 51.5t18.5 42q-17 6 -33 15t-32.5 23t-32 35.5t-30.5 52.5q-11 21 -19 40t-15 33.5t-13.5 23t-14.5 8.5q-9 0 -24 -15.5t-34 -40t-41 -54.5t-45 -58.5t-45.5 -52.5
t-43.5 -37t-52.5 -27.5t-67.5 -29.5t-72 -31t-65.5 -31.5t-47.5 -30.5t-18 -28q0 -21 32 -34.5t86 -21.5t125 -11.5t149 -3.5h579q61 0 128.5 -1t134 -4t127.5 -8.5t109 -14.5q12 -2 21 -5.5t15 -12.5t9 -24.5t3 -40.5q0 -37 -2.5 -63t-10.5 -42.5t-23 -24t-40 -7.5h-1206
q-93 0 -171.5 12.5t-135 36.5t-88.5 59t-32 80q0 33 10.5 70t27.5 74t38.5 73t43.5 66.5t42.5 54t35.5 36.5q13 12 40.5 28t61.5 33.5t71.5 36t71.5 36.5t61 34t40 29q19 19 40 48t43.5 61t46 64t47 58t47.5 42t47 16q21 0 37.5 -15.5t30.5 -39t25.5 -51t22.5 -51.5
q20 -45 52 -80t81 -47q37 44 86 96t105.5 104.5t118.5 102t124.5 87t123.5 60.5t116 23t111 -25.5t101.5 -65t74 -86.5t28.5 -90q0 -56 -8.5 -97.5t-19.5 -71.5t-23 -50t-19 -32l4 -5q38 5 87.5 7.5t103.5 2.5l-20 -264q-32 0 -65 0.5t-65.5 2t-62.5 3.5t-54 5
q-54 7 -98.5 23t-77.5 45q-94 -28 -201 -44.5t-216 -16.5q-32 0 -67.5 1.5t-70 3.5t-65 5.5t-52.5 7.5z" />
    <glyph glyph-name="uniFEC3_uniFBAF.liga" unicode="&#xfec3;&#xfbaf;" horiz-adv-x="1828" 
d="M804 461q66 3 138 9t142.5 15.5t136 22t119.5 28.5t92 34.5t54 40.5q-3 19 -21.5 45t-49 49.5t-71 39.5t-87.5 16q-45 0 -101.5 -25t-117 -67t-121 -96t-113.5 -112zM1488 335q-71 -36 -160 -60.5t-185 -40.5t-193.5 -24.5t-186.5 -12.5q-93 -8 -184.5 -29.5
t-164.5 -48.5t-118.5 -54t-45.5 -46q0 -20 32.5 -33.5t87 -22t125 -12.5t147.5 -4h580q51 0 117.5 -1t135.5 -3.5t133.5 -8t112.5 -14.5q12 -2 21 -5.5t14.5 -12.5t8.5 -24.5t3 -40.5q0 -38 -2.5 -64t-10.5 -42.5t-23 -23.5t-40 -7l-1206 1q-92 0 -170 12t-135 36t-89.5 59
t-32.5 80q0 27 10.5 62t27.5 72.5t38.5 74.5t43.5 69.5t42.5 57.5t35.5 38q55 64 141 113t209 77l47 53q7 15 12 35.5t8 43.5t4.5 47t1.5 45q-2 48 -7.5 103t-12.5 111.5t-14 110.5t-11 101q-3 27 -3.5 53t1.5 52q-17 17 -28.5 47t-11.5 64q0 25 9 51.5t24 52t34.5 49.5
t39.5 44q9 10 17 10q10 0 12 -11q2 -24 9 -45.5t21 -43.5t37 -47t56 -56q17 -15 22.5 -26t5.5 -23q0 -15 -6.5 -36t-17 -41.5t-24 -36.5t-26.5 -21q2 -44 4.5 -98.5t5 -107.5t4 -99t1.5 -74q0 -26 -3 -52.5t-10 -49.5q51 54 114 114t132.5 109.5t143 82t146.5 32.5
q57 0 117 -27t108.5 -69t80 -92t31.5 -96q0 -50 -14.5 -104.5t-40.5 -105.5t-61.5 -94.5t-76.5 -71.5z" />
    <glyph glyph-name="uniFEC4_uniFBAF.liga" unicode="&#xfec4;&#xfbaf;" horiz-adv-x="1813" 
d="M804 433q66 3 138 9.5t142.5 16t136 22t119.5 28.5t92 34.5t54 40.5q-3 19 -21.5 45t-49 49t-71 39.5t-87.5 16.5q-45 0 -101.5 -25t-117 -67t-121 -96.5t-113.5 -112.5zM1618 444q37 -10 86.5 -15t127.5 -5l-19 -264q-33 0 -69.5 1t-73 3t-72.5 5.5t-67 8.5
q-57 8 -101.5 26.5t-89.5 50.5q-67 -20 -139.5 -34t-147 -23t-148.5 -14.5t-143 -8.5q-62 -4 -124 -14t-118.5 -24t-106 -30t-85.5 -32t-57 -30.5t-21 -25.5q0 -20 32.5 -33.5t87 -22t125 -12.5t147.5 -4h516q51 0 112.5 -1t124.5 -3.5t123 -8t108 -14.5q12 -2 21 -5.5
t15 -12.5t9 -24.5t3 -40.5q0 -38 -2.5 -64t-10.5 -42.5t-23 -23.5t-40 -7l-1112 1q-92 0 -170 12t-135 36t-89.5 59t-32.5 80q0 26 10.5 59.5t28 68.5t39 70t43.5 65.5t42 54.5t35 37q55 63 141 109t209 73l47 55q7 15 12 36.5t8 45.5t4.5 49t1.5 47q-2 50 -7.5 107.5
t-12.5 116t-14 115.5t-11 105q-3 27 -3.5 53.5t1.5 51.5q-17 17 -28.5 47t-11.5 64q0 25 9 51.5t24 52.5t34.5 50t39.5 44q9 10 17 10q10 0 12 -11q2 -25 9 -46.5t21 -43.5t37 -47t56 -56q17 -15 22.5 -26t5.5 -23q0 -15 -6.5 -36t-17 -41.5t-24 -36.5t-26.5 -21
q2 -53 4.5 -112t5 -115t4 -103t1.5 -75q0 -26 -3 -53t-10 -50q51 54 114 114t132.5 109.5t143 82t146.5 32.5q57 0 117 -27t108.5 -69t80 -92.5t31.5 -96.5q0 -40 -6.5 -75t-16.5 -64.5t-21.5 -53.5t-21.5 -41z" />
    <glyph glyph-name="uniFECB_uniFBAF.liga" unicode="&#xfecb;&#xfbaf;" horiz-adv-x="1828" 
d="M1115 937q11 -10 18 -18.5t11.5 -19t6 -24.5t1.5 -35q0 -22 -5.5 -34.5t-18.5 -12.5q-9 0 -28 9.5t-45.5 21t-59 21t-69.5 9.5q-44 0 -87 -10t-79.5 -26.5t-64.5 -38t-43 -43.5q3 -26 27 -61t61 -67.5t82.5 -57.5t92.5 -31q37 4 77 13t82 21t84.5 25t83.5 26q20 6 33 0.5
t13 -29.5q0 -16 -7.5 -50.5t-19.5 -70.5t-26.5 -64.5t-27.5 -32.5q-72 -20 -149.5 -38t-152.5 -38q-69 -20 -148 -42.5t-182 -51.5q-66 -19 -125 -41.5t-103.5 -45t-70.5 -44t-26 -37.5q0 -19 36 -32.5t93 -22.5t126.5 -13t136.5 -4h580q51 0 117.5 -1t135 -3.5t133.5 -8
t113 -14.5q12 -2 21 -5.5t14.5 -12.5t8.5 -24.5t3 -40.5q0 -38 -2.5 -64t-10.5 -42.5t-23 -23.5t-40 -7h-1206q-92 0 -170 12.5t-135 36.5t-89.5 59t-32.5 80q0 40 15.5 89.5t42.5 100t63 98.5t77 86q24 25 60 49t78 46t88 41t90 34q-15 11 -33.5 31t-34.5 45.5t-27 54
t-11 56.5q0 46 14 96t39.5 98.5t60 92.5t76 77.5t88 53t95.5 19.5q48 0 87.5 -10t72.5 -26.5t61 -38t54 -44.5z" />
    <glyph glyph-name="uniFECC_uniFBAF.liga" unicode="&#xfecc;&#xfbaf;" horiz-adv-x="1302" 
d="M498 558q-17 0 -25.5 11.5t-8.5 39.5q0 22 6.5 55t17 64.5t24.5 57t30 34.5q58 32 121 52.5t146 20.5q57 0 114.5 -16t104.5 -43.5t76.5 -65.5t29.5 -82q0 -30 -6 -61t-19 -59t-32 -51.5t-45 -39.5q51 -27 120 -39t170 -12l-20 -264q-100 0 -174.5 10t-131.5 29.5
t-99.5 46.5t-78.5 62l-238 -98q-59 -25 -118 -51.5t-106 -52t-76.5 -48t-29.5 -39.5q0 -19 36 -32.5t93 -22.5t126.5 -13t136.5 -4h579q51 0 117.5 -1t135.5 -3.5t133.5 -8t112.5 -14.5q12 -2 21 -5.5t15 -12.5t9 -24.5t3 -40.5q0 -38 -2.5 -64t-10.5 -42.5t-23 -23.5
t-40 -7h-1206q-92 0 -170 12.5t-135 36.5t-89.5 59t-32.5 80q0 40 15 91t44 105t70.5 106.5t95.5 97.5q36 30 84.5 56.5t103.5 51t113 48t113 48.5q-12 12 -29.5 26t-37.5 26.5t-40 20.5t-37 8q-14 0 -26 -7.5t-30 -7.5z" />
    <glyph glyph-name="uniFEDB_uniFBAF.liga" unicode="&#xfedb;&#xfbaf;" horiz-adv-x="1761" 
d="M790 366q-25 -68 -90.5 -120.5t-186.5 -97.5q-44 -15 -90.5 -30t-84.5 -30.5t-63 -32.5t-25 -36q0 -18 37 -31.5t94.5 -22.5t127 -13.5t133.5 -4.5h453q49 0 115.5 -1t136 -3.5t135 -8t113.5 -14.5q29 -5 38 -23t9 -60q0 -38 -2.5 -64t-10.5 -42.5t-23 -23.5t-40 -7
h-1080q-92 0 -170 12.5t-135 36.5t-89.5 59t-32.5 80q0 40 14 89.5t40 98t63 93t82 76.5q26 18 66.5 36.5t87.5 37.5t95 39.5t89 44t70.5 49.5t39.5 56q-6 35 -25.5 70.5t-50.5 69.5t-72 66.5t-89 62.5l-8 -31q-4 -13 -14.5 -16.5t-24.5 4.5q-29 18 -57.5 36t-56.5 46
q-27 21 -38.5 58.5t-11.5 89.5q0 30 4.5 69t13 77.5t20 71t25.5 50.5q15 22 62 52t113.5 64.5t147.5 70.5t165 69q50 20 98.5 39t98 38t101 39t107.5 42q11 5 19 0.5t8 -18.5q0 -15 -5.5 -43.5t-21.5 -74.5q-23 -61 -41 -94t-42 -41q-99 -35 -188.5 -68t-173.5 -67
t-165.5 -68.5t-164.5 -72.5q102 -64 171.5 -126.5t119.5 -130.5q56 -75 77.5 -146t21.5 -140q-2 -59 -12.5 -102.5t-26.5 -87.5z" />
    <glyph glyph-name="uniFEDC_uniFBAF.liga" unicode="&#xfedc;&#xfbaf;" horiz-adv-x="1218" 
d="M1218 160q-62 0 -107.5 13t-85.5 44t-79 82t-87 127l-17 -3q-2 -14 -10.5 -35.5t-19.5 -41.5q-9 -16 -26.5 -34.5t-51 -42t-86.5 -52t-134 -64.5q-42 -18 -88.5 -34t-85.5 -32t-64.5 -32.5t-25.5 -35.5q0 -18 37 -31.5t94.5 -22.5t126.5 -13.5t134 -4.5h564q49 0 115 -1
t135.5 -3.5t135 -8t113.5 -14.5q29 -5 38 -23t9 -60q0 -38 -2.5 -64t-10.5 -42.5t-23 -23.5t-40 -7h-1190q-75 0 -151 12.5t-137.5 36.5t-100 59t-38.5 80q0 40 14.5 89.5t42.5 99.5t69.5 98t95.5 86q29 20 69.5 40t85.5 41t91.5 42.5t86 43.5t68.5 44t41 45
q-12 67 -71.5 126.5t-149.5 119.5q-54 36 -105.5 69t-102.5 64q-17 11 -27 24.5t-10 33.5q0 30 5 65.5t13.5 72.5t20 73t25.5 67q14 21 63 51.5t117 65t148 70t157 66.5q100 42 200.5 80.5t208.5 80.5q12 5 19.5 -1.5t7.5 -16.5q0 -16 -5.5 -44t-21.5 -74q-22 -63 -40 -95.5
t-42 -41.5q-101 -37 -190.5 -70.5t-173 -66.5t-164.5 -66.5t-165 -70.5q88 -49 169.5 -105.5t144.5 -110.5q44 -39 79 -76.5t64.5 -72t55 -66.5t50.5 -61q24 -27 48 -59t51.5 -59.5t60.5 -46t75 -18.5z" />
    <glyph glyph-name="uniFEDF_uniFBAF.liga" unicode="&#xfedf;&#xfbaf;" horiz-adv-x="1761" 
d="M800 394q-28 -74 -97 -137.5t-190 -108.5q-46 -17 -93 -32t-84.5 -30t-61.5 -31.5t-24 -35.5q0 -18 37 -31.5t94.5 -22.5t127 -13.5t133.5 -4.5h453q60 0 127.5 -1t134 -3.5t128.5 -8t110 -14.5q29 -5 38 -23t9 -60q0 -38 -2.5 -64t-10.5 -42.5t-23 -23.5t-40 -7h-1080
q-85 0 -162 12.5t-136 36.5t-94 59t-35 80t14 94.5t40 97.5t63 90.5t82 74.5q26 19 66.5 38t86.5 39t92.5 40t85 40.5t64 41t29.5 40.5v55.5t-2 55.5q-5 50 -13 113t-16.5 129t-16 132t-10.5 122q-3 49 0 90q-17 17 -29 48t-12 63q0 25 9.5 51.5t24.5 52t34.5 50t40.5 45.5
q7 9 14 9q11 0 13 -12q3 -24 9 -44t19.5 -41.5t36.5 -46.5t59 -59q17 -17 22 -27.5t5 -22.5q0 -15 -6.5 -36t-17.5 -41t-24.5 -36t-26.5 -21q3 -46 7 -98t8 -105t7.5 -104t6 -95t4 -78t1.5 -52q0 -68 -10 -116t-19 -71z" />
    <glyph glyph-name="uniFEE0_uniFBAF.liga" unicode="&#xfee0;&#xfbaf;" horiz-adv-x="1062" 
d="M1082 424l-20 -264q-118 0 -200.5 54t-113.5 174h-10q-7 -28 -18.5 -56t-26.5 -52.5t-32.5 -44t-36.5 -29.5q-84 -45 -153 -73t-118 -47t-76 -33.5t-27 -33.5q0 -18 37 -31.5t94.5 -22.5t126.5 -13.5t134 -4.5h409q58 0 125.5 -1t134.5 -3.5t129 -8t110 -14.5
q29 -5 38 -23t9 -60q0 -38 -2.5 -64t-10.5 -42.5t-23 -23.5t-40 -7h-1035q-85 0 -162 12.5t-136 36.5t-94 59t-35 80t14 95.5t40 99.5t63 93.5t82 76.5q39 27 100.5 55t124.5 59t116.5 67t77.5 78q12 21 20 52t13.5 68t7.5 77.5t2 80.5q0 10 -2.5 47.5t-5.5 89.5t-7.5 111
t-7.5 111.5t-5.5 91.5t-2.5 52q0 29 19 55.5t54 67.5q24 27 45.5 45.5t34.5 18.5q8 0 13 -4.5t5 -9.5q4 -94 9.5 -192t12.5 -204q8 -106 15 -208t14 -205q3 -47 14 -89t32 -74t52 -51t73 -19z" />
    <glyph glyph-name="uniFEE3_uniFBAF.liga" unicode="&#xfee3;&#xfbaf;" horiz-adv-x="1828" 
d="M763 885q60 0 124.5 -23.5t117 -57.5t86.5 -71.5t34 -65.5q0 -32 -10.5 -72.5t-26 -78t-33 -65.5t-31.5 -34q-25 -10 -68.5 -23.5t-94 -29t-102 -32t-92.5 -32.5q-132 -54 -213.5 -98t-126.5 -78.5t-61 -60.5t-16 -44q0 -19 36 -32.5t93 -22.5t126.5 -13t136.5 -4h579
q52 0 118.5 -1t135 -3.5t133 -8t112.5 -14.5q12 -2 21 -5.5t15 -12.5t9 -24.5t3 -40.5q0 -38 -2.5 -64t-10.5 -42.5t-23 -23.5t-40 -7h-1206q-92 0 -170 12.5t-135 36.5t-89.5 59t-32.5 80q0 52 25 117.5t72.5 132t115 129.5t152.5 111q18 10 43.5 24t53.5 28.5t55.5 28.5
t49.5 25q-33 38 -48 76.5t-15 73.5q0 31 16.5 74.5t44 82.5t64 66.5t75.5 27.5z" />
    <glyph glyph-name="uniFEE4_uniFBAF.liga" unicode="&#xfee4;&#xfbaf;" horiz-adv-x="1425" 
d="M1425 160q-63 0 -110 20.5t-89 68.5q-8 -20 -20.5 -44t-30 -45.5t-38.5 -36t-46 -14.5q-41 0 -92 19t-103 49t-100.5 67t-85.5 74q-15 -25 -28.5 -45t-29 -37.5t-35 -32.5t-46.5 -30q-62 -34 -119.5 -56t-102.5 -38t-72 -29.5t-27 -30.5q0 -19 36 -32.5t93 -22.5
t126.5 -13t136.5 -4h444q52 0 118.5 -1t135 -3.5t133 -8t112.5 -14.5q12 -2 21 -6t15 -12.5t9 -24t3 -40.5q0 -38 -2.5 -64t-10.5 -42.5t-23 -23.5t-40 -7h-1071q-92 0 -170 12.5t-135 36.5t-89.5 59t-32.5 80q0 51 16.5 100t38.5 90t44 71t34 43q37 41 117 86.5t188 97.5
q50 23 96 60.5t77 88.5q14 24 25.5 48.5t25.5 54.5q21 46 48.5 85.5t59.5 68.5t67 45.5t73 16.5q48 0 78.5 -21t57.5 -60t57.5 -93.5t77.5 -121.5q19 -30 35 -53t37.5 -38.5t52 -24t79.5 -8.5zM1083 365q7 1 9.5 7t3.5 12q-6 31 -20 70.5t-35 76t-47 64t-56 35.5
q-14 0 -30.5 -6.5t-32.5 -20t-29.5 -34t-20.5 -48.5q21 -29 56 -56t72.5 -48t72.5 -35t57 -17z" />
    <glyph glyph-name="uniFEEB_uniFBAF.liga" unicode="&#xfeeb;&#xfbaf;" horiz-adv-x="1828" 
d="M603 405q-62 50 -62 152q0 45 15 89t39 84t55 74.5t64 60.5v5q-22 4 -33 3.5t-22 4.5q-19 7 -19 26q0 7 6.5 29.5t16.5 51t22 59t23 54.5q14 28 26 46t37 18q14 0 35 -8t42.5 -19t41 -22.5t30.5 -18.5q88 -55 175 -123.5t156 -149.5t112 -174t43 -196q0 -40 -11 -77.5
t-29.5 -70.5t-44 -60t-54.5 -46q-14 -10 -35.5 -19t-46.5 -9q-37 0 -83 7.5t-95.5 21t-99.5 32.5t-96 42q-34 -16 -71.5 -31.5t-75.5 -30t-75 -27t-70 -23.5q-65 -22 -115 -39.5t-84.5 -33.5t-52 -32.5t-17.5 -35.5q0 -18 37 -31.5t94 -22.5t126.5 -13.5t134.5 -4.5h580
q51 0 117.5 -1t135.5 -3.5t133.5 -8t112.5 -14.5q12 -2 21 -5.5t14.5 -12.5t8.5 -24.5t3 -40.5q0 -38 -2.5 -64t-10.5 -42.5t-23 -23.5t-40 -7h-1206q-93 0 -171 12.5t-135 36.5t-89 59t-32 80q0 40 14 89t40.5 98t63 93.5t81.5 76.5t88.5 54t86.5 39.5t85.5 33t84.5 33.5z
M868 780q-26 0 -55 -10.5t-54.5 -30t-45 -46t-26.5 -58.5q5 -38 36.5 -67t105.5 -57q47 23 86 59t49 82q-1 18 -9 40t-20.5 41.5t-30 33t-36.5 13.5zM1274 448q-3 15 -16 41.5t-35.5 58t-54 65t-71.5 63.5l-8 -3q3 -12 4.5 -26t1.5 -24q0 -18 -5 -42t-14 -48t-21 -46
t-27 -37q29 -9 64.5 -21t73.5 -12q30 0 59 5.5t49 25.5z" />
    <glyph glyph-name="uniFBAC_uniFBAF.liga" unicode="&#xfbac;&#xfbaf;" horiz-adv-x="1828" 
d="M603 405q-62 53 -62 162q0 45 12 93.5t33 94.5t49 87t59 71q27 26 53.5 49.5t56 41t62.5 28t73 10.5q44 0 73.5 -14.5t48.5 -34t30 -39.5t18 -32q20 -3 41.5 -12.5t42 -22.5t38.5 -28.5t32 -31.5q67 -76 105 -169t38 -199q0 -41 -11 -79.5t-29.5 -72.5t-44 -62t-54.5 -48
q-14 -10 -35.5 -19t-46.5 -9q-37 0 -83 7.5t-95.5 21t-99.5 32.5t-96 42q-34 -16 -71.5 -31.5t-75.5 -30t-75 -27t-70 -23.5q-65 -22 -115 -39.5t-84.5 -33.5t-52 -32.5t-17.5 -35.5q0 -18 37 -31.5t94 -22.5t126.5 -13.5t134.5 -4.5h580q51 0 117.5 -1t135.5 -3.5t133.5 -8
t112.5 -14.5q12 -2 21 -5.5t14.5 -12.5t8.5 -24.5t3 -40.5q0 -38 -2.5 -64t-10.5 -42.5t-23 -23.5t-40 -7h-1206q-93 0 -171 12.5t-135 36.5t-89 59t-32 80q0 40 14 89t40.5 98t63 93.5t81.5 76.5t88.5 54t86.5 39.5t85.5 33t84.5 33.5zM870 797q-27 0 -56 -11.5t-55 -32
t-45.5 -48.5t-26.5 -62q5 -39 36.5 -71t105.5 -61q24 12 46.5 28t41 35t31.5 41t18 46q-1 19 -9 42.5t-20.5 44.5t-30 35t-36.5 14zM1274 448q-3 18 -13.5 45.5t-29 60.5t-47 69t-67.5 71l-9 -3q4 -14 5 -30.5t1 -27.5q0 -22 -7.5 -46.5t-19.5 -49t-27.5 -47t-31.5 -40.5
q29 -9 64.5 -21t73.5 -12q30 0 59 5.5t49 25.5z" />
    <glyph glyph-name="uniFBA8_uniFBAF.liga" unicode="&#xfba8;&#xfbaf;" horiz-adv-x="1828" 
d="M1720 -80q12 -2 21 -5.5t15 -12.5t9 -24.5t3 -40.5q0 -37 -2.5 -63t-10.5 -42.5t-23 -24t-40 -7.5h-1206q-93 0 -171.5 12.5t-135 36.5t-88.5 59t-32 80q0 48 22.5 105.5t54 110.5t65 95.5t56.5 62.5q14 12 42 28.5t62.5 34.5t72.5 37t71.5 36.5t60 33t37.5 27.5
q17 17 36 43t39 54t40.5 56.5t41.5 51.5t42 37t42 14q24 0 42.5 -15t34 -38t29 -50t28.5 -51q25 -39 56 -67t63.5 -46t65.5 -26.5t62 -8.5q34 0 51 21t17 53q0 42 -15 82t-32.5 74.5t-32.5 61t-15 43.5t13 46.5t32 57.5t38.5 48.5t33.5 20.5q13 0 22.5 -12t21.5 -33
q22 -36 39.5 -77.5t30 -86t19.5 -90t7 -89.5q0 -91 -18.5 -159.5t-50 -115t-72.5 -70t-87 -23.5q-47 0 -95.5 8t-95 25.5t-89 46t-78.5 69.5q-18 20 -31 39.5t-23.5 35t-19 25t-18.5 9.5q-8 0 -21 -13.5t-29.5 -35t-36 -47.5t-39.5 -51.5t-40 -46.5t-38 -32
q-21 -13 -52.5 -27.5t-67.5 -30t-72 -31.5t-65.5 -31.5t-47.5 -30t-18 -27.5q0 -21 32 -34.5t86 -22t125 -12t149 -3.5h579q51 0 117.5 -1t135.5 -3.5t133.5 -8t112.5 -14.5z" />
    <glyph glyph-name="uniFBA8_uniFEF0.liga" unicode="&#xfba8;&#xfef0;" horiz-adv-x="2113" 
d="M1572 149q-65 0 -108 17.5t-72 44.5t-48 59t-37 60q-18 29 -34.5 55t-37 46t-48 32t-67.5 12q-65 0 -122 -16.5t-100 -39t-67.5 -46.5t-24.5 -39q0 -24 50.5 -41t164.5 -37q45 -8 77.5 -19.5t52.5 -31t29.5 -50.5t9.5 -77q0 -26 -8 -59.5t-20 -66t-26.5 -61t-27.5 -44.5
q-56 -56 -123 -101.5t-143.5 -78t-162 -50t-178.5 -17.5q-130 0 -215 39.5t-135.5 102.5t-71 141.5t-20.5 156.5q0 58 10 114t25.5 107.5t35 96.5t38.5 82q7 14 14 22.5t17 13.5t24.5 6.5t35.5 1.5q28 0 39 -5t11 -19q0 -11 -12.5 -37t-27 -63t-27 -83.5t-12.5 -98.5
q0 -75 25 -132t71 -96t112 -58.5t147 -19.5q51 0 112 11.5t121.5 32t114.5 48t91 59.5q0 8 -6.5 14t-23.5 12t-47.5 12t-78.5 13q-32 4 -69 12.5t-68.5 27t-53 50t-21.5 81.5q0 59 23 118t62 113t91.5 100.5t111 81t120 54t119.5 19.5q53 0 91 -18.5t66 -46.5t48.5 -60.5
t38.5 -59.5q18 -29 36 -53t38 -41.5t43.5 -27.5t54.5 -10q45 0 88.5 5.5t82 15t71.5 22t58 26.5q-8 51 -32.5 112t-66.5 121q-10 14 -16 28t-6 33q0 20 12 49t29 56t34.5 46t29.5 19q13 0 23 -11t23 -31q24 -34 46.5 -79t39.5 -97t27.5 -107t10.5 -109q0 -48 -12 -101.5
t-30 -98.5q-10 -23 -23.5 -38.5t-40.5 -29.5q-33 -18 -75 -35.5t-91 -31t-102 -21.5t-107 -8zM1732 130q9 10 19.5 14t38.5 4q43 0 43 -20q0 -6 -15.5 -34t-34.5 -64.5t-34.5 -74.5t-15.5 -64q0 -36 7 -52t18 -16q8 0 15.5 2t12.5 10l12 20q8 14 25 23t44 9q21 0 34 -5
t20 -12.5t9 -16t2 -15.5q0 -12 -7.5 -31t-18.5 -41t-25 -44t-27 -39q-10 -13 -22 -26t-29 -23.5t-41.5 -17.5t-58.5 -7q-31 0 -52 14.5t-34 37t-18.5 49.5t-5.5 51q0 51 12 101t31.5 97.5t44.5 90.5t51 80z" />
    <glyph glyph-name="uniFED3_uniFEE0_uniFEE0_uniFEEA.liga" unicode="&#xfed3;&#xfee0;&#xfee0;&#xfeea;" horiz-adv-x="2660" 
d="M1917 174q-51 14 -88 38t-61 56.5t-37 69.5h-9q-15 -54 -31.5 -93.5t-29.5 -55.5q-22 -20 -52.5 -34.5t-61.5 -14.5q-43 0 -92 5.5t-97 26.5t-91.5 61.5t-74.5 111.5h-6q-8 -44 -29 -87t-57.5 -77t-90.5 -55t-127 -21q-59 0 -109 17t-87.5 54.5t-59 97.5t-22.5 146h-6
q-17 -29 -37.5 -55t-41.5 -46t-41.5 -32t-38.5 -12q-39 0 -82.5 3.5t-86 12t-81.5 22t-69 33t-47.5 46t-17.5 60.5q0 31 17.5 74t43 86t54 80t50.5 56q14 10 52.5 32t91 49.5t113 58t117.5 57.5v10t1 10q1 15 6 27.5t14 25t21.5 27t29.5 34.5q23 27 38.5 43t24.5 16
q15 0 15 -13q0 -55 0.5 -115t2.5 -106q2 -85 4 -168.5t8 -171.5q3 -55 19.5 -91t41.5 -57t57 -29.5t67 -8.5q34 0 70 7.5t66 25t51 44.5t26 66q0 23 -4 59t-10.5 78t-14 86t-14 84.5t-10.5 74.5t-4 54q0 26 17 54t48 72q22 32 41 51.5t31 19.5q7 0 13 -4t7 -10
q17 -154 33.5 -291.5t33.5 -274.5q6 -43 29 -75t53 -53.5t63.5 -32t60.5 -10.5q20 0 39 5t36 19q0 22 -6 68.5t-15.5 105t-20 122.5t-20 122t-15.5 103.5t-6 66.5q0 18 17 51t39.5 65.5t45.5 56.5t36 24q6 0 12 -4.5t6 -8.5q10 -109 24 -217.5t25 -202.5q9 -62 30.5 -125
t60.5 -114t98.5 -83.5t145.5 -32.5q103 0 198 18t159 54q2 7 3 18.5t1 22.5q0 24 -3.5 47.5t-11.5 39.5h-17q-14 -31 -49 -53t-80 -22t-87.5 12t-75.5 39.5t-53 74t-20 115.5q0 83 25 159t64.5 134t89 92.5t99.5 34.5q63 0 114.5 -42t87.5 -112t55.5 -160.5t19.5 -187.5
q0 -66 -16 -158.5t-48 -192.5q-9 -29 -27 -56t-40 -38q-75 -45 -177.5 -74t-237.5 -29q-67 0 -118 14zM2145 1609q22 21 48 21q14 0 34 -7.5t53 -33.5q32 -26 49.5 -50t17.5 -52q0 -17 -7.5 -38.5t-26.5 -52.5q-20 -35 -41.5 -56t-47.5 -21q-13 0 -34 7.5t-53 32.5
q-31 25 -48.5 52t-17.5 51q0 17 6.5 39.5t25.5 54.5q20 32 42 53zM598.5 644.5q-0.5 36.5 -0.5 87.5v79h-3q-10 -15 -29 -32t-31 -25q-30 -16 -66 -33.5t-73.5 -36.5t-75 -40t-70.5 -45q22 -21 49 -34.5t56 -21t57 -9.5t52 -1q40 0 72 11.5t63 28.5q0 35 -0.5 71.5z
M2374.5 856q-11.5 27 -29 50.5t-39.5 39.5t-47 16q-20 0 -38 -8.5t-32 -22t-23 -29.5t-10 -30q3 -21 18.5 -39t39.5 -31t53.5 -20.5t60.5 -7.5q13 0 30 9t31 24q-3 22 -14.5 49zM1109 1402q2 5 8.5 9t26.5 4q27 0 27 -13q0 -17 -2.5 -41.5t-7.5 -40.5q5 -4 13.5 -8t19.5 -4
q15 0 27.5 14t21.5 35t15 45.5t9 46.5q2 13 9.5 17.5t30.5 4.5q19 0 21 -15q0 -39 -6.5 -84t-23 -83t-45 -63.5t-71.5 -25.5q-21 0 -35.5 7t-25.5 15q-9 -12 -19.5 -25t-24 -23t-31.5 -16.5t-44 -6.5q-14 0 -27 4t-23.5 15t-17 31.5t-6.5 52.5t10 64.5t21 48.5q4 7 12 9
t20 2q5 0 12.5 -3t7.5 -11q0 -12 -6.5 -32t-6.5 -34q0 -12 6 -21.5t19 -9.5q19 0 33.5 15t24.5 36t16.5 44t11.5 40zM1171 1473q-2 -8 -7.5 -11t-22.5 -3q-20 0 -20 14q0 37 -2 82.5t-13 87.5q-8 33 -24.5 57t-36.5 44q-6 6 -6 25q0 8 2.5 26.5t7 38t10 34t10.5 14.5
q12 0 21 -11q51 -57 73 -127.5t22 -146.5q0 -29 -4.5 -65t-9.5 -59z" />
    <glyph glyph-name="uniFED3_uniFEE0_uniFEE0_uniFEEA.liga" unicode="&#xfed3;&#xfee0;&#xfee0;&#xfeea;" horiz-adv-x="2660" 
d="M2035 160q-67 0 -118 14t-88 38t-61 56.5t-37 69.5h-9q-15 -54 -31.5 -93.5t-29.5 -55.5q-22 -20 -52.5 -34.5t-61.5 -14.5q-43 0 -92 5.5t-97 26.5t-91.5 61.5t-74.5 111.5h-6q-8 -44 -29 -87t-57.5 -77t-90.5 -55t-127 -21q-59 0 -109 17t-87.5 54.5t-59 97.5
t-22.5 146h-6q-17 -29 -37.5 -55t-41.5 -46t-41.5 -32t-38.5 -12q-39 0 -82.5 3.5t-86 12t-81.5 22t-69 33t-47.5 46t-17.5 60.5q0 31 17.5 74t43 86t54 80t50.5 56q14 10 52.5 32t91 49.5t113 58t117.5 57.5v10t1 10q1 15 6 27.5t14 25t21.5 27t29.5 34.5q23 27 38.5 43
t24.5 16q15 0 15 -13q0 -55 0.5 -115t2.5 -106q2 -85 4 -168.5t8 -171.5q3 -55 19.5 -91t41.5 -57t57 -29.5t67 -8.5q34 0 70 7.5t66 25t51 44.5t26 66q0 23 -4 59t-10.5 78t-14 86t-14 84.5t-10.5 74.5t-4 54q0 26 17 54t48 72q22 32 41 51.5t31 19.5q7 0 13 -4t7 -10
q17 -154 33.5 -291.5t33.5 -274.5q6 -43 29 -75t53 -53.5t63.5 -32t60.5 -10.5q20 0 39 5t36 19q0 22 -6 68.5t-15.5 105t-20 122.5t-20 122t-15.5 103.5t-6 66.5q0 18 17 51t39.5 65.5t45.5 56.5t36 24q6 0 12 -4.5t6 -8.5q10 -109 24 -217.5t25 -202.5q9 -62 30.5 -125
t60.5 -114t98.5 -83.5t145.5 -32.5q103 0 198 18t159 54q2 7 3 18.5t1 22.5q0 24 -3.5 47.5t-11.5 39.5h-17q-14 -31 -49 -53t-80 -22t-87.5 12t-75.5 39.5t-53 74t-20 115.5q0 83 25 159t64.5 134t89 92.5t99.5 34.5q63 0 114.5 -42t87.5 -112t55.5 -160.5t19.5 -187.5
q0 -66 -16 -158.5t-48 -192.5q-9 -29 -27 -56t-40 -38q-75 -45 -177.5 -74t-237.5 -29zM2103 1556q20 32 42 53t48 21q14 0 34 -7.5t53 -33.5q32 -26 49.5 -50t17.5 -52q0 -17 -7.5 -38.5t-26.5 -52.5q-20 -35 -41.5 -56t-47.5 -21q-13 0 -34 7.5t-53 32.5q-31 25 -48.5 52
t-17.5 51q0 17 6.5 39.5t25.5 54.5zM599 573q0 35 -0.5 71.5t-0.5 87.5v79h-3q-10 -15 -29 -32t-31 -25q-30 -16 -66 -33.5t-73.5 -36.5t-75 -40t-70.5 -45q22 -21 49 -34.5t56 -21t57 -9.5t52 -1q40 0 72 11.5t63 28.5zM2389 807q-3 22 -14.5 49t-29 50.5t-39.5 39.5
t-47 16q-20 0 -38 -8.5t-32 -22t-23 -29.5t-10 -30q3 -21 18.5 -39t39.5 -31t53.5 -20.5t60.5 -7.5q13 0 30 9t31 24z" />
    <glyph glyph-name="uni0620.init" unicode="&#x620;" horiz-adv-x="536" 
d="M0 160q-15 0 -30.5 6.5t-28.5 18.5t-21 30.5t-8 42.5v85q0 21 9 36.5t24 25t34.5 14.5t40.5 5q44 0 88 4t83.5 11.5t73.5 18.5t58 25q-8 51 -32.5 112t-66.5 121q-10 14 -16 28t-6 33q0 20 12 49t29 56t34.5 46t29.5 19q13 0 23 -11t23 -31q24 -34 46 -79.5t39.5 -97
t28 -106.5t10.5 -109q0 -48 -12 -101.5t-29 -98.5q-10 -23 -23 -38.5t-39 -29.5q-32 -18 -75 -33.5t-92.5 -27t-102.5 -18t-104 -6.5zM409 -111q0 -35 -5.5 -73.5t-26 -70t-60 -52t-107.5 -20.5q-48 0 -79 35.5t-31 100.5q0 42 13 86.5t34 81t47.5 60t53.5 23.5t55.5 -11.5
t52 -33t38.5 -53.5t15 -73zM223 -211q48 0 82.5 15t34.5 46q-2 19 -10.5 36.5t-22 31t-31.5 22t-39 8.5q-13 0 -25.5 -12t-22 -28.5t-15 -34.5t-5.5 -30q0 -26 11 -40t43 -14z" />
    <glyph glyph-name="uni0620.medi" unicode="&#x620;" horiz-adv-x="641" 
d="M641 160q-65 0 -115.5 9.5t-88 31.5t-64 57.5t-44.5 88.5h-7q-25 -40 -56.5 -78.5t-63.5 -60.5q-45 -26 -96.5 -37t-105.5 -11q-15 0 -30.5 6.5t-28.5 18.5t-21 30.5t-8 42.5v85q0 21 9 36.5t24 25t34.5 14.5t40.5 5q45 0 83 11.5t66 28.5q21 12 40 39.5t36 64t30.5 79.5
t22.5 87q2 10 7 17.5t17 11.5t33.5 6t56.5 2q32 0 32 -26q0 -7 -3 -29t-7.5 -50.5t-10 -59t-9.5 -55.5q8 -71 71 -99t176 -28zM391 -110q0 -35 -5.5 -73.5t-26 -70t-60 -52t-107.5 -20.5q-48 0 -79 35.5t-31 100.5q0 42 13 86.5t34 81t47.5 60t53.5 23.5t55.5 -11.5t52 -33
t38.5 -53.5t15 -73zM205 -210q48 0 82.5 15t34.5 46q-2 19 -10.5 36.5t-22 31t-31.5 22t-39 8.5q-13 0 -25.5 -12t-22 -28.5t-15 -34.5t-5.5 -30q0 -26 11 -40t43 -14z" />
    <glyph glyph-name="uni0620.fina" unicode="&#x620;" horiz-adv-x="1178" 
d="M1178 160q-31 0 -59 -2.5t-49.5 -6t-34 -8.5t-12.5 -10q0 -4 17.5 -8.5t44.5 -10t57.5 -12.5t57.5 -16.5t44.5 -21t17.5 -25.5q0 -23 -7 -49t-18.5 -52.5t-25.5 -51.5t-28 -45q-43 -39 -113.5 -76t-159 -65t-190 -45t-207.5 -17q-122 0 -208 36.5t-141 97t-80 139.5
t-25 165q0 54 10.5 107.5t27 102.5t36 91.5t36.5 75.5q7 13 14 21t16.5 13t23.5 7t36 2q28 0 39 -5t11 -19q0 -11 -12.5 -36.5t-27 -62t-27 -81.5t-12.5 -96q0 -73 27 -130t76 -96t116 -59.5t147 -20.5q65 0 138 7t139.5 18.5t120.5 26.5t81 31q-7 7 -30.5 13t-56 12
t-70 12.5t-70 14t-57 16.5t-32.5 20q-19 19 -31.5 42t-12.5 54q0 24 12.5 53.5t40 60t73 59.5t111.5 52q20 7 48 14.5t60 13.5t67.5 10t70.5 4zM1120 -457q0 -26 -5.5 -55t-26 -53t-60 -40t-107.5 -16q-48 0 -79 27t-31 76q0 32 13 66t34 61.5t47.5 45.5t53.5 18t55.5 -9
t52 -25.5t38.5 -40.5t15 -55zM934 -533q48 0 82.5 9t34.5 27q-4 23 -32.5 40.5t-70.5 17.5q-13 0 -25.5 -7t-22 -17t-15 -20.5t-5.5 -17.5q0 -15 11 -23.5t43 -8.5z" />
    <glyph glyph-name="uniFE80" unicode="&#x621;" horiz-adv-x="780" arabic-form="isolated" 
d="M706 526q15 0 15 -12q0 -15 -4.5 -38t-18.5 -62q-14 -40 -29 -67.5t-26 -30.5q-114 -24 -193.5 -48.5t-133 -47t-85.5 -41.5t-50.5 -33.5t-27.5 -22.5t-17 -8q-14 0 -18.5 24.5t-4.5 62.5q0 28 30 64.5t78 71.5q-64 26 -101 74t-37 105q0 34 14.5 74t40 80.5t60 77.5
t74.5 66t84 46.5t88 17.5q61 0 100.5 -28.5t39.5 -78.5q0 -23 -9 -59t-26 -70q-9 -17 -23 -17q-11 0 -20 8.5t-24 18.5t-39 18.5t-65 8.5q-32 0 -57.5 -7t-43.5 -19t-27.5 -27t-9.5 -30q0 -26 24.5 -47.5t58.5 -36.5t70 -23t59 -8q31 0 72.5 7t80 15t67 15t34.5 7z" />
    <glyph glyph-name="uniFE81" unicode="&#x622;" horiz-adv-x="634" arabic-form="isolated" 
d="M362 199q-5 -12 -13.5 -17.5t-34.5 -5.5q-27 0 -37 6t-10 17q-2 27 -1 67t-1 74q-3 70 -9.5 149.5t-14 161.5t-15.5 163.5t-14.5 156t-11 138t-4.5 109.5q0 27 20 55.5t56 65.5q24 27 47 46t37 19q7 0 12.5 -5t5.5 -10q1 -62 4.5 -134t8.5 -148.5t11 -154.5t10.5 -150.5
t7.5 -137t3 -114.5q0 -56 -5.5 -109t-13.5 -99t-18.5 -83t-19.5 -60zM634 1664q12 5 19 5q6 -1 11 -4.5t5 -8.5q0 -28 -6.5 -42.5t-19.5 -27.5q-26 -26 -61 -49t-76 -40t-86 -27t-90 -10q-57 0 -110 20t-84 61l-98 -60q-11 -7 -24 -7q-14 3 -14 15q0 34 3.5 46.5t17.5 22.5
l125 89q10 7 19.5 9.5t19.5 2.5q21 0 36 -12q32 -29 74 -45.5t114 -16.5q39 0 97.5 18.5t127.5 60.5z" />
    <glyph glyph-name="uniFE83" unicode="&#x623;" horiz-adv-x="394" arabic-form="isolated" 
d="M256 199q-5 -12 -13.5 -17.5t-35.5 -5.5q-26 0 -36 6t-10 17q-2 25 -1.5 61t0.5 68q-4 68 -11.5 145.5t-16 157.5t-17 159.5t-16 151.5t-12 134t-4.5 107q0 29 21.5 57.5t57.5 66.5q24 29 46.5 47.5t38.5 18.5q6 0 11 -4.5t5 -9.5q2 -61 6.5 -133t10 -148t12 -153.5
t11.5 -150.5t8 -137t3 -114q0 -51 -5.5 -100t-14 -91.5t-19 -76.5t-19.5 -56zM353 1590q9 0 9 -7q0 -9 -2.5 -22.5t-11.5 -39.5q-9 -25 -17.5 -41.5t-15.5 -18.5q-102 -21 -159 -42t-86.5 -38.5t-39 -28t-16.5 -10.5q-9 0 -11.5 18.5t-2.5 47.5q0 14 16.5 33.5t43.5 38.5
q-36 15 -56 41.5t-20 61.5q0 43 19 82t49.5 69t69.5 47.5t79 17.5q38 0 63 -16.5t25 -45.5q0 -15 -6 -36t-18 -43q-5 -11 -15 -11q-6 0 -11 5t-13 11.5t-21.5 11.5t-36.5 5q-32 0 -55.5 -15.5t-23.5 -35.5q0 -17 14 -29.5t33 -20t39.5 -11t34.5 -3.5q17 0 40.5 4t45.5 8.5
t38 8.5t19 4z" />
    <glyph glyph-name="uniFE85" unicode="&#x624;" horiz-adv-x="923" arabic-form="isolated" 
d="M672 522q-7 35 -21 65t-32.5 51.5t-39.5 33.5t-41 12q-27 0 -46.5 -9.5t-32.5 -23t-20 -29.5t-8 -29q1 -21 15.5 -39.5t37.5 -31.5t52 -20.5t59 -7.5q12 0 35 8t42 20zM684 335q-17 -27 -54.5 -48.5t-89.5 -21.5q-54 0 -99.5 18t-78 50.5t-51 78t-18.5 101.5
q0 54 12 105.5t32.5 98t48.5 85.5t60.5 67t67.5 44t70 16q61 0 112.5 -39t89 -105t58 -154t20.5 -185q0 -92 -16.5 -182.5t-47 -171.5t-74 -150.5t-97.5 -120.5t-118 -79.5t-135 -28.5q-34 0 -74 6t-82.5 18t-86.5 31t-86 45q-14 9 -23 16.5t-14.5 18.5t-7.5 27.5t-2 43.5
q0 30 4.5 40.5t18.5 10.5q9 0 29.5 -11.5t47.5 -25t58 -24.5t61 -11q50 0 102 14.5t102 41t96 62t84 78t65 89.5t40 95q-1 14 -2.5 30t-5.5 27h-16zM724 1216q9 0 9 -7q0 -9 -2.5 -22.5t-11.5 -39.5q-9 -25 -17.5 -41.5t-15.5 -18.5q-102 -21 -159 -42t-86.5 -38.5t-39 -28
t-16.5 -10.5q-9 0 -11.5 18.5t-2.5 47.5q0 14 16.5 33.5t43.5 38.5q-36 15 -56 41.5t-20 61.5q0 43 19 82t49.5 69t69.5 47.5t79 17.5q38 0 63 -16.5t25 -45.5q0 -15 -6 -36t-18 -43q-5 -11 -15 -11q-6 0 -11 5t-13 11.5t-21.5 11.5t-36.5 5q-32 0 -55.5 -15.5t-23.5 -35.5
q0 -17 14 -29.5t33 -20t39.5 -11t34.5 -3.5q17 0 40.5 4t45.5 8.5t38 8.5t19 4z" />
    <glyph glyph-name="uniFE87" unicode="&#x625;" horiz-adv-x="386" arabic-form="isolated" 
d="M250 199q-5 -12 -13.5 -17.5t-35.5 -5.5q-26 0 -36 6t-10 17q-3 27 -1.5 67t-1.5 74q-3 70 -9.5 149.5t-14 161.5t-15.5 163.5t-14.5 156t-11 138t-4.5 109.5q0 27 20.5 55.5t56.5 65.5q24 27 46.5 46t37.5 19q7 0 12.5 -5t5.5 -10q1 -62 4.5 -134t8.5 -148.5
t10.5 -154.5t10 -150.5t7.5 -137t3 -114.5q0 -56 -5.5 -109t-13.5 -99t-18 -83t-19 -60zM354 -110q9 0 9 -7q0 -9 -2.5 -22.5t-11.5 -39.5q-9 -25 -17.5 -41.5t-15.5 -18.5q-102 -21 -159 -42t-86.5 -38.5t-39 -28t-16.5 -10.5q-9 0 -11.5 18.5t-2.5 47.5q0 14 16.5 33.5
t43.5 38.5q-36 15 -56 41.5t-20 61.5q0 43 19 82t49.5 69t69.5 47.5t79 17.5q38 0 63 -16.5t25 -45.5q0 -15 -6 -36t-18 -43q-5 -11 -15 -11q-6 0 -11 5t-13 11.5t-21.5 11.5t-36.5 5q-32 0 -55.5 -15.5t-23.5 -35.5q0 -17 14 -29.5t33 -20t39.5 -11t34.5 -3.5q17 0 40.5 4
t45.5 8.5t38 8.5t19 4z" />
    <glyph glyph-name="uniFE89" unicode="&#x626;" horiz-adv-x="1373" arabic-form="isolated" 
d="M1257 820q-7 -12 -14 -17t-19 -5t-20.5 12t-20.5 26.5t-31.5 26.5t-54.5 12q-26 0 -56.5 -10.5t-62 -28t-61 -39.5t-52.5 -45t-37 -44t-14 -37q0 -27 61 -51t196 -47q55 -9 96 -22.5t68 -36t40.5 -57t13.5 -86.5q0 -27 -8.5 -63.5t-22 -74t-30 -69.5t-31.5 -50
q-62 -59 -137 -108.5t-161.5 -84.5t-184 -54.5t-203.5 -19.5q-134 0 -221.5 39.5t-138.5 102.5t-71.5 142t-20.5 157q0 55 10 110.5t25.5 107t35 97.5t38.5 83q7 13 14 21.5t17 13t24.5 6.5t35.5 2q28 0 39 -5t11 -19q0 -11 -12.5 -36.5t-27 -62t-27 -82.5t-12.5 -98
q0 -76 26.5 -133.5t74.5 -96.5t116 -59t152 -20q64 0 137 13.5t143.5 36.5t133 54t104.5 67q0 7 -8.5 14t-28.5 13.5t-54.5 12.5t-85.5 12q-62 7 -115 19.5t-92 36t-61 60.5t-22 93q0 61 22.5 127.5t61 130t89.5 121t107 100.5t114.5 68.5t112.5 25.5q157 0 157 -139
q0 -17 -5.5 -38.5t-13.5 -44t-18 -44t-20 -36.5zM452 1008q9 0 9 -7q0 -9 -2.5 -22.5t-11.5 -39.5q-9 -25 -17.5 -41.5t-15.5 -18.5q-102 -21 -159 -42t-86.5 -38.5t-39 -28t-16.5 -10.5q-9 0 -11.5 18.5t-2.5 47.5q0 14 16.5 33.5t43.5 38.5q-36 15 -56 41.5t-20 61.5
q0 43 19 82t49.5 69t69.5 47.5t79 17.5q38 0 63 -16.5t25 -45.5q0 -15 -6 -36t-18 -43q-5 -11 -15 -11q-6 0 -11 5t-13 11.5t-21.5 11.5t-36.5 5q-32 0 -55.5 -15.5t-23.5 -35.5q0 -17 14 -29.5t33 -20t39.5 -11t34.5 -3.5q17 0 40.5 4t45.5 8.5t38 8.5t19 4z" />
    <glyph glyph-name="uniFE8D" unicode="&#x627;" horiz-adv-x="386" arabic-form="isolated" 
d="M250 199q-5 -12 -13.5 -17.5t-35.5 -5.5q-26 0 -36 6t-10 17q-3 27 -1.5 67t-1.5 74q-3 70 -9.5 149.5t-14 161.5t-15.5 163.5t-14.5 156t-11 138t-4.5 109.5q0 27 20.5 55.5t56.5 65.5q24 27 46.5 46t37.5 19q7 0 12.5 -5t5.5 -10q1 -62 4.5 -134t8.5 -148.5
t10.5 -154.5t10 -150.5t7.5 -137t3 -114.5q0 -56 -5.5 -109t-13.5 -99t-18 -83t-19 -60z" />
    <glyph glyph-name="uniFE8F" unicode="&#x628;" horiz-adv-x="1668" arabic-form="isolated" 
d="M1481 258q-372 -134 -824 -134q-173 0 -288 34t-184 92t-97.5 135t-28.5 163q0 97 22.5 174t54.5 133q9 15 16 24t17 14t24 6.5t36 1.5q28 0 39 -5t11 -19q0 -11 -9 -34t-19.5 -53.5t-19 -67t-8.5 -73.5q0 -57 26 -104t86 -80.5t157 -52t240 -18.5q92 0 195 8t201.5 22
t184.5 32t143 39q-2 28 -10 60t-20 64t-27 62.5t-31 56.5q-22 33 -22 63q0 22 13 53.5t31.5 60.5t38 49.5t33.5 20.5t25 -9t25 -32q21 -36 39 -80t30.5 -93.5t20 -103t7.5 -108.5q0 -54 -14 -111t-37 -109q-12 -27 -31.5 -49.5t-45.5 -31.5zM785 -122q21 33 44.5 54t51.5 21
q15 0 37 -7.5t57 -33.5q34 -27 53 -51t19 -51q0 -17 -8.5 -38.5t-28.5 -53.5q-22 -34 -45 -55t-50 -21q-14 0 -37 7.5t-57 32.5q-33 25 -52 51.5t-19 51.5q0 17 7.5 39.5t27.5 53.5z" />
    <glyph glyph-name="uniFE93" unicode="&#x629;" horiz-adv-x="737" arabic-form="isolated" 
d="M215 1033q17 0 48 -9t68 -24t76 -36t72 -45q53 -38 90.5 -72.5t61.5 -76t35.5 -95t11.5 -128.5q0 -34 -5 -71t-16 -74.5t-28 -72.5t-41 -65q-15 -18 -42 -37.5t-63 -35.5t-80.5 -26.5t-95.5 -10.5q-132 0 -190 66.5t-58 205.5q0 39 8 82.5t21.5 88.5t31.5 88.5t37 81.5
q-10 3 -20 10t-10 17t4.5 32t11.5 48.5t16 54.5t19 51t19.5 38t17.5 15zM547 514q0 25 -23.5 53.5t-59.5 56.5t-80 53t-85 42q-18 -18 -37.5 -43t-36 -52t-27 -53.5t-10.5 -47.5q0 -17 8 -34.5t26 -32t46.5 -24t69.5 -9.5q44 0 82 9.5t66.5 23t44.5 29.5t16 29zM124 1358
q17 29 37 48t43 19q12 0 30.5 -7t48.5 -30q28 -23 44 -45t16 -47q0 -15 -7 -34.5t-24 -47.5q-19 -31 -38.5 -50.5t-41.5 -19.5q-13 0 -31.5 7t-47.5 30q-27 24 -43.5 47.5t-16.5 44.5q0 17 6.5 36.5t24.5 48.5zM387 1373q17 29 37 48t44 19q13 0 31 -7t47 -30t45.5 -45
t16.5 -47q0 -15 -7 -34.5t-26 -47.5q-18 -32 -37.5 -51t-41.5 -19q-12 0 -31 7t-49 30q-27 23 -43 47t-16 45q0 16 6.5 35.5t23.5 49.5z" />
    <glyph glyph-name="uniFE95" unicode="&#x62a;" horiz-adv-x="1668" arabic-form="isolated" 
d="M1481 258q-372 -134 -824 -134q-173 0 -288 34t-184 92t-97.5 135t-28.5 163q0 97 22.5 174t54.5 133q9 15 16 24t17 14t24 6.5t36 1.5q28 0 39 -5t11 -19q0 -11 -9 -34t-19.5 -53.5t-19 -67t-8.5 -73.5q0 -57 26 -104t86 -80.5t157 -52t240 -18.5q92 0 195 8t201.5 22
t184.5 32t143 39q-2 28 -10 60t-20 64t-27 62.5t-31 56.5q-22 33 -22 63q0 22 13 53.5t31.5 60.5t38 49.5t33.5 20.5t25 -9t25 -32q21 -36 39 -80t30.5 -93.5t20 -103t7.5 -108.5q0 -54 -14 -111t-37 -109q-12 -27 -31.5 -49.5t-45.5 -31.5zM596 1090q17 29 37 48t43 19
q12 0 30.5 -7t48.5 -30q28 -23 44 -45t16 -47q0 -15 -7 -34.5t-24 -47.5q-19 -31 -38.5 -50.5t-41.5 -19.5q-13 0 -31.5 7t-47.5 30q-27 24 -43.5 47.5t-16.5 44.5q0 17 6.5 36.5t24.5 48.5zM859 1105q17 29 37 48t44 19q13 0 31 -7t47 -30t45.5 -45t16.5 -47
q0 -15 -7 -34.5t-26 -47.5q-18 -32 -37.5 -51t-41.5 -19q-12 0 -31 7t-49 30q-27 23 -43 47t-16 45q0 16 6.5 35.5t23.5 49.5z" />
    <glyph glyph-name="uniFE99" unicode="&#x62b;" horiz-adv-x="1668" arabic-form="isolated" 
d="M1481 258q-372 -134 -824 -134q-173 0 -288 34t-184 92t-97.5 135t-28.5 163q0 97 22.5 174t54.5 133q9 15 16 24t17 14t24 6.5t36 1.5q28 0 39 -5t11 -19q0 -11 -9 -34t-19.5 -53.5t-19 -67t-8.5 -73.5q0 -57 26 -104t86 -80.5t157 -52t240 -18.5q92 0 195 8t201.5 22
t184.5 32t143 39q-2 28 -10 60t-20 64t-27 62.5t-31 56.5q-22 33 -22 63q0 22 13 53.5t31.5 60.5t38 49.5t33.5 20.5t25 -9t25 -32q21 -36 39 -80t30.5 -93.5t20 -103t7.5 -108.5q0 -54 -14 -111t-37 -109q-12 -27 -31.5 -49.5t-45.5 -31.5zM596 1068q17 30 37 48.5t43 18.5
q12 0 30.5 -7t48.5 -30q28 -23 44 -45t16 -45q0 -15 -7 -34t-24 -46q-19 -31 -38.5 -50t-41.5 -19q-13 0 -31.5 6.5t-47.5 29.5q-27 23 -43.5 46.5t-16.5 43.5q0 17 6.5 36.5t24.5 46.5zM859 1083q17 30 37 48t44 18q13 0 31 -7t47 -29q29 -23 45.5 -45t16.5 -45
q0 -15 -7 -34t-26 -48q-18 -30 -37.5 -48.5t-41.5 -18.5q-12 0 -31 6.5t-49 29.5q-27 22 -43 46t-16 44q0 16 6.5 35t23.5 48zM699 1345q17 29 38 48t44 19q12 0 30 -6.5t47 -29.5q30 -23 46 -45t16 -46q0 -14 -7 -33.5t-25 -46.5q-19 -30 -38.5 -49.5t-41.5 -19.5
q-12 0 -30.5 6.5t-47.5 30.5q-29 23 -45 45.5t-16 43.5q0 16 6.5 36t23.5 47z" />
    <glyph glyph-name="uniFE9D" unicode="&#x62c;" horiz-adv-x="1264" arabic-form="isolated" 
d="M574 630q-30 4 -64 10t-73.5 11.5t-84.5 9.5t-97 4q-53 0 -82 -8.5t-44.5 -18t-24.5 -18t-21 -8.5t-16 10t-4 35q0 24 2.5 38.5t5.5 22.5q14 35 33 70t47.5 63t69 45.5t97.5 17.5q51 0 92.5 -4.5t85.5 -12t96 -17.5t123 -22q75 -14 178.5 -26.5t234.5 -12.5q18 0 18 -20
q0 -9 -7 -39t-25 -72q-23 -57 -42 -90t-39 -33q-22 0 -60.5 -1t-85 -5.5t-97 -13t-95.5 -23.5q-113 -35 -202.5 -87.5t-151.5 -116.5t-94.5 -137t-32.5 -149q0 -102 56.5 -172.5t155.5 -115.5t232.5 -66.5t287.5 -24.5q38 -1 75.5 0t70 3t57 3.5t36.5 1.5q11 0 15 -9.5
t4 -34.5q0 -32 -5 -44t-16 -17q-49 -25 -108 -50.5t-117.5 -46.5t-112.5 -34t-94 -13q-163 0 -291.5 32.5t-217.5 98.5t-136 166.5t-47 235.5q0 94 19 169.5t48 135.5t65 105.5t69 79.5q30 29 67 57t78 53.5t84 46t85 34.5v4zM603 191q21 33 44.5 54t51.5 21q15 0 37 -7.5
t57 -33.5q34 -27 53 -51t19 -51q0 -17 -8.5 -38.5t-28.5 -53.5q-22 -34 -45 -55t-50 -21q-14 0 -37 7.5t-57 32.5q-33 25 -52 51.5t-19 51.5q0 17 7.5 39.5t27.5 53.5z" />
    <glyph glyph-name="uniFEA1" unicode="&#x62d;" horiz-adv-x="1264" arabic-form="isolated" 
d="M574 630q-30 4 -64 10t-73.5 11.5t-84.5 9.5t-97 4q-53 0 -82 -8.5t-44.5 -18t-24.5 -18t-21 -8.5t-16 10t-4 35q0 24 2.5 38.5t5.5 22.5q14 35 33 70t47.5 63t69 45.5t97.5 17.5q51 0 92.5 -4.5t85.5 -12t96 -17.5t123 -22q75 -14 178.5 -26.5t234.5 -12.5q18 0 18 -20
q0 -9 -7 -39t-25 -72q-23 -57 -42 -90t-39 -33q-22 0 -60.5 -1t-85 -5.5t-97 -13t-95.5 -23.5q-113 -35 -202.5 -87.5t-151.5 -116.5t-94.5 -137t-32.5 -149q0 -102 56.5 -172.5t155.5 -115.5t232.5 -66.5t287.5 -24.5q38 -1 75.5 0t70 3t57 3.5t36.5 1.5q11 0 15 -9.5
t4 -34.5q0 -32 -5 -44t-16 -17q-49 -25 -108 -50.5t-117.5 -46.5t-112.5 -34t-94 -13q-163 0 -291.5 32.5t-217.5 98.5t-136 166.5t-47 235.5q0 94 19 169.5t48 135.5t65 105.5t69 79.5q30 29 67 57t78 53.5t84 46t85 34.5v4z" />
    <glyph glyph-name="uniFEA5" unicode="&#x62e;" horiz-adv-x="1264" arabic-form="isolated" 
d="M574 630q-30 4 -64 10t-73.5 11.5t-84.5 9.5t-97 4q-53 0 -82 -8.5t-44.5 -18t-24.5 -18t-21 -8.5t-16 10t-4 35q0 24 2.5 38.5t5.5 22.5q14 35 33 70t47.5 63t69 45.5t97.5 17.5q51 0 92.5 -4.5t85.5 -12t96 -17.5t123 -22q75 -14 178.5 -26.5t234.5 -12.5q18 0 18 -20
q0 -9 -7 -39t-25 -72q-23 -57 -42 -90t-39 -33q-22 0 -60.5 -1t-85 -5.5t-97 -13t-95.5 -23.5q-113 -35 -202.5 -87.5t-151.5 -116.5t-94.5 -137t-32.5 -149q0 -102 56.5 -172.5t155.5 -115.5t232.5 -66.5t287.5 -24.5q38 -1 75.5 0t70 3t57 3.5t36.5 1.5q11 0 15 -9.5
t4 -34.5q0 -32 -5 -44t-16 -17q-49 -25 -108 -50.5t-117.5 -46.5t-112.5 -34t-94 -13q-163 0 -291.5 32.5t-217.5 98.5t-136 166.5t-47 235.5q0 94 19 169.5t48 135.5t65 105.5t69 79.5q30 29 67 57t78 53.5t84 46t85 34.5v4zM455 1291q21 32 44.5 53t51.5 21q15 0 37 -7.5
t57 -33.5q34 -26 53 -50t19 -52q0 -17 -8.5 -38.5t-28.5 -52.5q-22 -35 -45 -56t-50 -21q-14 0 -37 7.5t-57 32.5q-33 25 -52 52t-19 51q0 17 7.5 39.5t27.5 54.5z" />
    <glyph glyph-name="uniFEA9" unicode="&#x62f;" horiz-adv-x="895" arabic-form="isolated" 
d="M757 222q-24 -12 -71.5 -28t-107 -30t-123.5 -24t-121 -10q-72 0 -117.5 8t-72.5 24t-38.5 38.5t-15.5 51.5q-2 20 -3.5 45.5t0.5 53.5q1 29 3.5 69t7.5 79q2 14 12 19t36 5q27 0 37 -6t10 -17q0 -26 8 -46t29.5 -34.5t60 -22t98.5 -7.5q45 0 101 7.5t105 18t82.5 22.5
t33.5 21q0 32 -14.5 71.5t-39 81t-56.5 82t-66 75t-67.5 59.5t-62.5 35q-13 2 -19.5 3.5t-17.5 4.5q-13 5 -23.5 9.5t-10.5 17.5q0 9 7 32.5t18 52t24 56t25 43.5q8 10 18.5 18.5t31.5 8.5q16 0 36 -7t31 -16q77 -59 136.5 -133t100.5 -156t62.5 -167t21.5 -165
q0 -57 -14 -106.5t-28 -85.5q-13 -34 -47 -51z" />
    <glyph glyph-name="uniFEAB" unicode="&#x630;" horiz-adv-x="895" arabic-form="isolated" 
d="M757 222q-24 -12 -71.5 -28t-107 -30t-123.5 -24t-121 -10q-72 0 -117.5 8t-72.5 24t-38.5 38.5t-15.5 51.5q-2 20 -3.5 45.5t0.5 53.5q1 29 3.5 69t7.5 79q2 14 12 19t36 5q27 0 37 -6t10 -17q0 -26 8 -46t29.5 -34.5t60 -22t98.5 -7.5q45 0 101 7.5t105 18t82.5 22.5
t33.5 21q0 32 -14.5 71.5t-39 81t-56.5 82t-66 75t-67.5 59.5t-62.5 35q-13 2 -19.5 3.5t-17.5 4.5q-13 5 -23.5 9.5t-10.5 17.5q0 9 7 32.5t18 52t24 56t25 43.5q8 10 18.5 18.5t31.5 8.5q16 0 36 -7t31 -16q77 -59 136.5 -133t100.5 -156t62.5 -167t21.5 -165
q0 -57 -14 -106.5t-28 -85.5q-13 -34 -47 -51zM321 1461q21 32 44.5 53t51.5 21q15 0 37 -7.5t57 -33.5q34 -26 53 -50t19 -52q0 -17 -8.5 -38.5t-28.5 -52.5q-22 -35 -45 -56t-50 -21q-14 0 -37 7.5t-57 32.5q-33 25 -52 52t-19 51q0 17 7.5 39.5t27.5 54.5z" />
    <glyph glyph-name="uniFEAD" unicode="&#x631;" horiz-adv-x="882" arabic-form="isolated" 
d="M536 607q-14 18 -19.5 30t-5.5 26q0 21 7 58.5t18.5 74.5t26 64t30.5 27q14 0 24.5 -10.5t21.5 -23.5q32 -38 64.5 -90t59 -115t43 -135t16.5 -151q0 -66 -15.5 -138t-44.5 -142.5t-69 -134t-90 -112t-107.5 -77t-120.5 -28.5q-70 0 -154 25t-173 79q-14 9 -23.5 17.5
t-15 19t-7.5 25.5t-2 39q0 32 5.5 43.5t19.5 11.5q10 0 30 -11t46.5 -24.5t58 -24.5t66.5 -11q55 0 110.5 22.5t106.5 58t95 79.5t77 88t51.5 83.5t18.5 65.5q0 22 -12 55t-32 72t-47.5 81t-57.5 83z" />
    <glyph glyph-name="uniFEAF" unicode="&#x632;" horiz-adv-x="882" arabic-form="isolated" 
d="M536 607q-14 18 -19.5 30t-5.5 26q0 21 7 58.5t18.5 74.5t26 64t30.5 27q14 0 24.5 -10.5t21.5 -23.5q32 -38 64.5 -90t59 -115t43 -135t16.5 -151q0 -66 -15.5 -138t-44.5 -142.5t-69 -134t-90 -112t-107.5 -77t-120.5 -28.5q-70 0 -154 25t-173 79q-14 9 -23.5 17.5
t-15 19t-7.5 25.5t-2 39q0 32 5.5 43.5t19.5 11.5q10 0 30 -11t46.5 -24.5t58 -24.5t66.5 -11q55 0 110.5 22.5t106.5 58t95 79.5t77 88t51.5 83.5t18.5 65.5q0 22 -12 55t-32 72t-47.5 81t-57.5 83zM402 1297q21 32 44.5 53t51.5 21q15 0 37 -7.5t57 -33.5q34 -26 53 -50
t19 -52q0 -17 -8.5 -38.5t-28.5 -52.5q-22 -35 -45 -56t-50 -21q-14 0 -37 7.5t-57 32.5q-33 25 -52 52t-19 51q0 17 7.5 39.5t27.5 54.5z" />
    <glyph glyph-name="uniFEB1" unicode="&#x633;" horiz-adv-x="1906" arabic-form="isolated" 
d="M1664 638q0 15 10.5 39t39.5 61q25 36 39 48.5t24 12.5q13 0 19 -16q8 -21 16.5 -51.5t16 -65.5t12.5 -72t5 -71q0 -66 -15 -130t-41.5 -115t-62 -82.5t-77.5 -31.5t-86.5 13t-84 32t-70.5 41t-47 40q-26 -41 -77 -68.5t-121 -40.5q-17 -3 -37 -5.5t-40 -3.5
q0 -12 -0.5 -26t-0.5 -28q0 -45 -14 -101t-40 -110q-38 -59 -93.5 -109.5t-126.5 -88t-156.5 -59t-183.5 -21.5q-99 0 -176 30t-129.5 84t-80 129.5t-27.5 165.5q0 105 30.5 197t73.5 175q7 14 14 22.5t17 13t24.5 6t36.5 1.5q28 0 39 -4t11 -19q0 -12 -10.5 -35t-22.5 -55
t-22.5 -73.5t-10.5 -89.5q0 -64 18.5 -115.5t54 -88t86.5 -56t117 -19.5q61 0 125 13.5t122 37.5t105 58t74 76q0 41 -7 89t-20.5 97.5t-33 98t-44.5 90.5q-8 14 -14 27.5t-6 30.5q0 19 11 48.5t27 57.5t32.5 47.5t27.5 19.5q9 0 20.5 -8.5t22.5 -30.5q17 -30 33.5 -62.5
t33.5 -67.5q9 -17 17.5 -32.5t19.5 -27.5t26 -19t38 -7q52 0 92 19t69.5 53.5t50 82t34.5 104.5q2 10 14 15.5t48 5.5q33 0 44.5 -5.5t11.5 -15.5q0 -17 -3.5 -39t-8.5 -44.5t-10.5 -44t-9.5 -36.5q12 -27 37.5 -50t55 -39t59.5 -25t51 -9q24 0 40.5 16t16.5 59
q0 26 -8.5 51t-18 46t-18 37t-8.5 23z" />
    <glyph glyph-name="uniFEB5" unicode="&#x634;" horiz-adv-x="1906" arabic-form="isolated" 
d="M1664 638q0 15 10.5 39t39.5 61q25 36 39 48.5t24 12.5q13 0 19 -16q8 -21 16.5 -51.5t16 -65.5t12.5 -72t5 -71q0 -66 -15 -130t-41.5 -115t-62 -82.5t-77.5 -31.5t-86.5 13t-84 32t-70.5 41t-47 40q-26 -41 -77 -68.5t-121 -40.5q-17 -3 -37 -5.5t-40 -3.5
q0 -12 -0.5 -26t-0.5 -28q0 -45 -14 -101t-40 -110q-38 -59 -93.5 -109.5t-126.5 -88t-156.5 -59t-183.5 -21.5q-99 0 -176 30t-129.5 84t-80 129.5t-27.5 165.5q0 105 30.5 197t73.5 175q7 14 14 22.5t17 13t24.5 6t36.5 1.5q28 0 39 -4t11 -19q0 -12 -10.5 -35t-22.5 -55
t-22.5 -73.5t-10.5 -89.5q0 -64 18.5 -115.5t54 -88t86.5 -56t117 -19.5q61 0 125 13.5t122 37.5t105 58t74 76q0 41 -7 89t-20.5 97.5t-33 98t-44.5 90.5q-8 14 -14 27.5t-6 30.5q0 19 11 48.5t27 57.5t32.5 47.5t27.5 19.5q9 0 20.5 -8.5t22.5 -30.5q17 -30 33.5 -62.5
t33.5 -67.5q9 -17 17.5 -32.5t19.5 -27.5t26 -19t38 -7q52 0 92 19t69.5 53.5t50 82t34.5 104.5q2 10 14 15.5t48 5.5q33 0 44.5 -5.5t11.5 -15.5q0 -17 -3.5 -39t-8.5 -44.5t-10.5 -44t-9.5 -36.5q12 -27 37.5 -50t55 -39t59.5 -25t51 -9q24 0 40.5 16t16.5 59
q0 26 -8.5 51t-18 46t-18 37t-8.5 23zM1053 1076q17 30 37 48.5t43 18.5q12 0 30.5 -7t48.5 -30q28 -23 44 -45t16 -45q0 -15 -7 -34t-24 -46q-19 -31 -38.5 -50t-41.5 -19q-13 0 -31.5 6.5t-47.5 29.5q-27 23 -43.5 46.5t-16.5 43.5q0 17 6.5 36.5t24.5 46.5zM1316 1091
q17 30 37 48t44 18q13 0 31 -7t47 -29q29 -23 45.5 -45t16.5 -45q0 -15 -7 -34t-26 -48q-18 -30 -37.5 -48.5t-41.5 -18.5q-12 0 -31 6.5t-49 29.5q-27 22 -43 46t-16 44q0 16 6.5 35t23.5 48zM1156 1353q17 29 38 48t44 19q12 0 30 -6.5t47 -29.5q30 -23 46 -45t16 -46
q0 -14 -7 -33.5t-25 -46.5q-19 -30 -38.5 -49.5t-41.5 -19.5q-12 0 -30.5 6.5t-47.5 30.5q-29 23 -45 45.5t-16 43.5q0 16 6.5 36t23.5 47z" />
    <glyph glyph-name="uniFEB9" unicode="&#x635;" horiz-adv-x="2168" arabic-form="isolated" 
d="M1905 496q4 9 4 22.5t-2 24.5q-7 25 -28.5 49.5t-52 43t-67.5 30t-75 11.5q-36 0 -89 -20.5t-112 -55t-118 -81.5t-106 -99q42 -8 81 -10t84 -2q67 0 137 7t134.5 18.5t119 27.5t90.5 34zM1089 183q0 -14 -0.5 -25t-0.5 -23q0 -94 -38 -184.5t-116 -161.5t-196 -114.5
t-278 -43.5q-101 0 -176 31t-125 86.5t-75 133t-25 170.5q0 49 9.5 98t24.5 95t33.5 88t36.5 77q7 14 14 22.5t17 13t24.5 6t36.5 1.5q28 0 39 -4t11 -19q0 -11 -10.5 -34t-23 -55.5t-23 -74t-10.5 -89.5q0 -56 15.5 -106.5t49.5 -88.5t86.5 -61t127.5 -23q69 0 134 13.5
t121.5 37.5t100 58t68.5 76q0 104 -29.5 200t-74.5 174q-9 15 -15 30t-6 29q0 19 11 48.5t27 57.5t32.5 47.5t27.5 19.5t20.5 -8.5t21.5 -30.5q14 -27 28.5 -54.5t28.5 -56.5q23 -42 53.5 -58.5t56.5 -20.5q37 38 85 86.5t102.5 98t114 96.5t121 83.5t123 59t119.5 22.5
q57 0 114 -26t103 -66t74.5 -88t28.5 -91q0 -53 -15.5 -107.5t-41.5 -104.5t-60.5 -92.5t-73.5 -70.5q-39 -20 -98.5 -39.5t-130 -35.5t-147 -26t-150.5 -10q-78 0 -155.5 7t-146.5 27z" />
    <glyph glyph-name="uniFEBD" unicode="&#x636;" horiz-adv-x="2168" arabic-form="isolated" 
d="M1905 496q4 9 4 22.5t-2 24.5q-7 25 -28.5 49.5t-52 43t-67.5 30t-75 11.5q-36 0 -89 -20.5t-112 -55t-118 -81.5t-106 -99q42 -8 81 -10t84 -2q67 0 137 7t134.5 18.5t119 27.5t90.5 34zM1089 183q0 -14 -0.5 -25t-0.5 -23q0 -94 -38 -184.5t-116 -161.5t-196 -114.5
t-278 -43.5q-101 0 -176 31t-125 86.5t-75 133t-25 170.5q0 49 9.5 98t24.5 95t33.5 88t36.5 77q7 14 14 22.5t17 13t24.5 6t36.5 1.5q28 0 39 -4t11 -19q0 -11 -10.5 -34t-23 -55.5t-23 -74t-10.5 -89.5q0 -56 15.5 -106.5t49.5 -88.5t86.5 -61t127.5 -23q69 0 134 13.5
t121.5 37.5t100 58t68.5 76q0 104 -29.5 200t-74.5 174q-9 15 -15 30t-6 29q0 19 11 48.5t27 57.5t32.5 47.5t27.5 19.5t20.5 -8.5t21.5 -30.5q14 -27 28.5 -54.5t28.5 -56.5q23 -42 53.5 -58.5t56.5 -20.5q37 38 85 86.5t102.5 98t114 96.5t121 83.5t123 59t119.5 22.5
q57 0 114 -26t103 -66t74.5 -88t28.5 -91q0 -53 -15.5 -107.5t-41.5 -104.5t-60.5 -92.5t-73.5 -70.5q-39 -20 -98.5 -39.5t-130 -35.5t-147 -26t-150.5 -10q-78 0 -155.5 7t-146.5 27zM1273 1177q21 32 44.5 53t51.5 21q15 0 37 -7.5t57 -33.5q34 -26 53 -50t19 -52
q0 -17 -8.5 -38.5t-28.5 -52.5q-22 -35 -45 -56t-50 -21q-14 0 -37 7.5t-57 32.5q-33 25 -52 52t-19 51q0 17 7.5 39.5t27.5 54.5z" />
    <glyph glyph-name="uniFEC1" unicode="&#x637;" horiz-adv-x="1618" arabic-form="isolated" 
d="M689 417q66 3 137 8.5t140.5 14.5t134 21t117.5 27.5t91 34t55 40.5q-4 19 -22.5 45t-48.5 49.5t-70 39.5t-88 16q-45 0 -100.5 -24.5t-114.5 -65t-119 -94.5t-112 -112zM1368 285q-146 -70 -348 -105t-450 -40h-63.5t-64.5 2q-32 4 -79 22t-100.5 44.5t-107 58.5
t-96.5 62q-9 5 -14.5 17t-5.5 45q0 23 4 33t15 10q13 0 49 -4t91.5 -9t129 -9t162.5 -4l42 49q7 15 12 35.5t8 43.5t4.5 47t1.5 45q-3 52 -10 116.5t-15 128.5t-14.5 120.5t-8.5 93.5q-1 28 -2 54t1 51q-17 18 -29 47.5t-12 63.5q0 25 9.5 51.5t25 52t35 50t39.5 45.5
q7 9 15 9q12 0 12 -12q3 -24 10 -45.5t21 -43t36 -46.5t56 -56q17 -16 22.5 -26.5t5.5 -23.5q0 -15 -6.5 -36t-17 -41t-24 -36.5t-26.5 -21.5q2 -48 4.5 -102t5 -108.5t5 -106.5t3.5 -95q0 -26 -3 -52.5t-10 -49.5q51 54 114 114t132.5 110t143 82.5t145.5 32.5
q38 0 78 -12.5t77.5 -34t71 -49.5t58 -60t39 -65t14.5 -64q0 -51 -14.5 -105.5t-40.5 -105.5t-61 -94.5t-75 -72.5z" />
    <glyph glyph-name="uniFEC5" unicode="&#x638;" horiz-adv-x="1618" arabic-form="isolated" 
d="M689 417q66 3 137 8.5t140.5 14.5t134 21t117.5 27.5t91 34t55 40.5q-4 19 -22.5 45t-48.5 49.5t-70 39.5t-88 16q-45 0 -100.5 -24.5t-114.5 -65t-119 -94.5t-112 -112zM1368 285q-146 -70 -348 -105t-450 -40h-63.5t-64.5 2q-32 4 -79 22t-100.5 44.5t-107 58.5
t-96.5 62q-9 5 -14.5 17t-5.5 45q0 23 4 33t15 10q13 0 49 -4t91.5 -9t129 -9t162.5 -4l42 49q7 15 12 35.5t8 43.5t4.5 47t1.5 45q-3 52 -10 116.5t-15 128.5t-14.5 120.5t-8.5 93.5q-1 28 -2 54t1 51q-17 18 -29 47.5t-12 63.5q0 25 9.5 51.5t25 52t35 50t39.5 45.5
q7 9 15 9q12 0 12 -12q3 -24 10 -45.5t21 -43t36 -46.5t56 -56q17 -16 22.5 -26.5t5.5 -23.5q0 -15 -6.5 -36t-17 -41t-24 -36.5t-26.5 -21.5q2 -48 4.5 -102t5 -108.5t5 -106.5t3.5 -95q0 -26 -3 -52.5t-10 -49.5q51 54 114 114t132.5 110t143 82.5t145.5 32.5
q38 0 78 -12.5t77.5 -34t71 -49.5t58 -60t39 -65t14.5 -64q0 -51 -14.5 -105.5t-40.5 -105.5t-61 -94.5t-75 -72.5zM964 1292q21 32 44.5 53t51.5 21q15 0 37 -7.5t57 -33.5q34 -26 53 -50t19 -52q0 -17 -8.5 -38.5t-28.5 -52.5q-22 -35 -45 -56t-50 -21q-14 0 -37 7.5
t-57 32.5q-33 25 -52 52t-19 51q0 17 7.5 39.5t27.5 54.5z" />
    <glyph glyph-name="uniFEC9" unicode="&#x639;" horiz-adv-x="1229" arabic-form="isolated" 
d="M908 775q0 -20 -8 -56t-21.5 -72t-30.5 -65.5t-35 -36.5q-141 -50 -252.5 -109.5t-189 -126t-118.5 -140t-41 -150.5q0 -164 152.5 -254t451.5 -108q71 -5 134.5 -5t113 2.5t82 5t43.5 2.5t15.5 -9.5t4.5 -33.5q0 -33 -5 -45t-16 -16q-45 -22 -104 -47.5t-120.5 -47
t-120 -36t-102.5 -14.5q-192 0 -323 43t-210.5 116t-114 170t-34.5 205q0 82 19 159t51.5 143.5t74.5 121.5t88 93q-44 22 -82 53t-66 67t-44.5 76.5t-16.5 82.5q0 70 28 145t77 137.5t115 103t143 40.5q45 0 82.5 -10t70 -27t61 -38.5t54.5 -43.5q19 -16 26 -33.5t7 -56.5
q0 -48 -25 -48q-9 0 -27.5 10.5t-44 23t-56 23t-63.5 10.5q-44 0 -89.5 -13t-86 -33.5t-71.5 -45.5t-47 -49q0 -20 14.5 -41t37.5 -41t51 -38t55.5 -31t50.5 -21t37 -8q29 0 62 17t71 33l244 99q28 11 38 2.5t10 -34.5z" />
    <glyph glyph-name="uniFECD" unicode="&#x63a;" horiz-adv-x="1229" arabic-form="isolated" 
d="M908 775q0 -20 -8 -56t-21.5 -72t-30.5 -65.5t-35 -36.5q-141 -50 -252.5 -109.5t-189 -126t-118.5 -140t-41 -150.5q0 -164 152.5 -254t451.5 -108q71 -5 134.5 -5t113 2.5t82 5t43.5 2.5t15.5 -9.5t4.5 -33.5q0 -33 -5 -45t-16 -16q-45 -22 -104 -47.5t-120.5 -47
t-120 -36t-102.5 -14.5q-192 0 -323 43t-210.5 116t-114 170t-34.5 205q0 82 19 159t51.5 143.5t74.5 121.5t88 93q-44 22 -82 53t-66 67t-44.5 76.5t-16.5 82.5q0 70 28 145t77 137.5t115 103t143 40.5q45 0 82.5 -10t70 -27t61 -38.5t54.5 -43.5q19 -16 26 -33.5t7 -56.5
q0 -48 -25 -48q-9 0 -27.5 10.5t-44 23t-56 23t-63.5 10.5q-44 0 -89.5 -13t-86 -33.5t-71.5 -45.5t-47 -49q0 -20 14.5 -41t37.5 -41t51 -38t55.5 -31t50.5 -21t37 -8q29 0 62 17t71 33l244 99q28 11 38 2.5t10 -34.5zM234 1487q21 32 44.5 53t51.5 21q15 0 37 -7.5
t57 -33.5q34 -26 53 -50t19 -52q0 -17 -8.5 -38.5t-28.5 -52.5q-22 -35 -45 -56t-50 -21q-14 0 -37 7.5t-57 32.5q-33 25 -52 52t-19 51q0 17 7.5 39.5t27.5 54.5z" />
    <glyph glyph-name="uni063B.init" unicode="&#x63b;" horiz-adv-x="990" 
d="M189 1100q88 -60 178.5 -130t160.5 -148q22 -26 46 -60.5t44 -74t33 -83t13 -87.5q0 -54 -20.5 -108.5t-47.5 -99.5q-11 -19 -29 -36t-56 -34q-39 -17 -86.5 -31.5t-108.5 -25t-139 -16.5t-178 -6q-15 0 -30.5 6.5t-28.5 18.5t-21 30.5t-8 42.5v85q0 21 9 36.5t24 25
t34.5 14.5t39.5 5q136 0 224.5 8t145 22t87.5 32t52 38q-8 32 -40 66.5t-75 68.5t-91 65.5t-88 58.5l-10 -36q-10 -31 -39 -13q-35 20 -68 41t-59 41q-30 21 -41.5 58.5t-11.5 89.5q0 30 4.5 64.5t12.5 70t19.5 69.5t25.5 64q15 21 61.5 51.5t114 65t149.5 71t168 69.5
l405 158q12 5 20 -1t8 -17q0 -15 -5.5 -43t-22.5 -74q-22 -61 -40 -94.5t-42 -41.5q-110 -39 -198 -71.5t-167.5 -64t-158 -65.5t-169.5 -75zM196 1648q16 23 32.5 37.5t36.5 14.5q10 0 25.5 -5t40.5 -24q25 -18 38.5 -35t13.5 -36q0 -13 -6 -28t-21 -37
q-16 -25 -32.5 -39.5t-34.5 -14.5q-11 0 -27 5t-41 23q-23 19 -36.5 37t-13.5 35q0 14 5.5 29t19.5 38zM420 1725q14 23 31 37.5t39 14.5q10 0 25 -5.5t41 -22.5q23 -18 36.5 -35.5t13.5 -35.5q0 -13 -5.5 -28t-20.5 -37q-17 -24 -32.5 -39t-35.5 -15q-10 0 -26 4.5
t-41 23.5q-23 18 -36.5 36t-13.5 35q0 13 5.5 28.5t19.5 38.5z" />
    <glyph glyph-name="uni063B.medi" unicode="&#x63b;" horiz-adv-x="956" 
d="M956 160q-61 0 -109 12.5t-90.5 43t-84 81t-89.5 126.5h-4q-7 -35 -19.5 -66t-29.5 -59q-13 -21 -31.5 -38t-53.5 -34q-33 -15 -79.5 -27t-104 -21t-123.5 -13.5t-138 -4.5q-15 0 -30.5 6.5t-28.5 18.5t-21 30.5t-8 42.5v85q0 21 9 36.5t24 25t34.5 14.5t40.5 5
q99 0 174 6.5t130 19.5t91.5 31t59.5 41q-6 29 -31.5 60t-61 62.5t-75 62t-73.5 57.5q-39 30 -89 62t-102 64q-20 13 -29 29t-9 37q0 55 15.5 126t44.5 143q7 19 47.5 46t106 59.5t151.5 70t183.5 77.5t202 81.5t207.5 81.5q14 5 21 -1.5t7 -17.5q0 -15 -5.5 -43.5
t-22.5 -74.5q-22 -61 -40 -94t-41 -41q-111 -41 -201 -75.5t-171 -66.5t-158.5 -64.5t-163.5 -69.5q82 -56 153.5 -107t138 -107t130.5 -121.5t130 -150.5q20 -26 43.5 -57.5t52.5 -59.5t63.5 -47t75.5 -19zM196 1648q16 23 32.5 37.5t36.5 14.5q10 0 25.5 -5t40.5 -24
q25 -18 38.5 -35t13.5 -36q0 -13 -6 -28t-21 -37q-16 -25 -32.5 -39.5t-34.5 -14.5q-11 0 -27 5t-41 23q-23 19 -36.5 37t-13.5 35q0 14 5.5 29t19.5 38zM420 1725q14 23 31 37.5t39 14.5q10 0 25 -5.5t41 -22.5q23 -18 36.5 -35.5t13.5 -35.5q0 -13 -5.5 -28t-20.5 -37
q-17 -24 -32.5 -39t-35.5 -15q-10 0 -26 4.5t-41 23.5q-23 18 -36.5 36t-13.5 35q0 13 5.5 28.5t19.5 38.5z" />
    <glyph glyph-name="uni063B.fina" unicode="&#x63b;" horiz-adv-x="1874" 
d="M1874 160q-53 0 -97 9.5t-81.5 30.5t-69.5 53.5t-62 78.5q-14 20 -29 42t-31 48l-3 -1q-2 -16 -11.5 -41.5t-22.5 -50.5t-27.5 -46t-26.5 -28q-34 -24 -103.5 -49.5t-164.5 -46.5t-211.5 -34.5t-244.5 -13.5q-177 0 -298 32.5t-194.5 94.5t-105.5 151t-32 203q0 38 7 77
t18.5 76t26 71t30.5 64q7 15 14.5 24t18 14t25 6.5t35.5 1.5q28 0 38.5 -4.5t10.5 -18.5q0 -11 -9.5 -36t-21 -56.5t-21 -66.5t-9.5 -66q0 -74 29 -129.5t93 -92t165.5 -55t246.5 -18.5q96 0 190.5 8t178.5 23.5t154.5 38t119.5 51.5q-8 35 -36 73t-67.5 75t-85.5 71.5
t-89 63.5q-32 22 -70.5 47t-88.5 56q-20 13 -29 29t-9 37q0 55 16 126t44 143q7 18 48.5 45t107 60t152 70.5t184 78t201.5 81.5t205 81q14 5 22 -1.5t8 -17.5q0 -15 -6 -43.5t-24 -74.5q-22 -61 -40 -94t-42 -41q-98 -36 -188.5 -70.5t-176 -68.5t-167 -68.5t-162.5 -68.5
q75 -47 145.5 -98t137 -107t128.5 -119t119 -135q21 -26 47 -62t57.5 -69t69.5 -56t84 -23zM1119 1644q16 23 32.5 37.5t36.5 14.5q10 0 25.5 -5t40.5 -24q25 -18 38.5 -35t13.5 -36q0 -13 -6 -28t-21 -37q-16 -25 -32.5 -39.5t-34.5 -14.5q-11 0 -27 5t-41 23
q-23 19 -36.5 37t-13.5 35q0 14 5.5 29t19.5 38zM1343 1721q14 23 31 37.5t39 14.5q10 0 25 -5.5t41 -22.5q23 -18 36.5 -35.5t13.5 -35.5q0 -13 -5.5 -28t-20.5 -37q-17 -24 -32.5 -39t-35.5 -15q-10 0 -26 4.5t-41 23.5q-23 18 -36.5 36t-13.5 35q0 13 5.5 28.5t19.5 38.5
z" />
    <glyph glyph-name="uni063C.init" unicode="&#x63c;" horiz-adv-x="990" 
d="M189 1100q88 -60 178.5 -130t160.5 -148q22 -26 46 -60.5t44 -74t33 -83t13 -87.5q0 -54 -20.5 -108.5t-47.5 -99.5q-11 -19 -29 -36t-56 -34q-39 -17 -86.5 -31.5t-108.5 -25t-139 -16.5t-178 -6q-15 0 -30.5 6.5t-28.5 18.5t-21 30.5t-8 42.5v85q0 21 9 36.5t24 25
t34.5 14.5t39.5 5q136 0 224.5 8t145 22t87.5 32t52 38q-8 32 -40 66.5t-75 68.5t-91 65.5t-88 58.5l-10 -36q-10 -31 -39 -13q-35 20 -68 41t-59 41q-30 21 -41.5 58.5t-11.5 89.5q0 30 4.5 64.5t12.5 70t19.5 69.5t25.5 64q15 21 61.5 51.5t114 65t149.5 71t168 69.5
l405 158q12 5 20 -1t8 -17q0 -15 -5.5 -43t-22.5 -74q-22 -61 -40 -94.5t-42 -41.5q-110 -39 -198 -71.5t-167.5 -64t-158 -65.5t-169.5 -75zM248 -53q14 23 29.5 37t34.5 14q10 0 24.5 -5.5t37.5 -22.5q23 -18 35.5 -34.5t12.5 -35.5q0 -11 -5 -26t-19 -36
q-15 -25 -31 -39.5t-33 -14.5q-10 0 -25 5.5t-38 22.5q-22 17 -34.5 35.5t-12.5 34.5q0 13 5 28t19 37zM458 -42q14 23 29.5 37.5t34.5 14.5q10 0 24.5 -5.5t37.5 -22.5q23 -19 36 -35.5t13 -35.5q0 -11 -6 -26t-20 -37q-14 -23 -30 -38.5t-33 -15.5q-10 0 -25 5t-38 24
q-22 17 -34.5 35t-12.5 35q0 12 5 28t19 37zM373 -252q14 24 29.5 38t34.5 14q10 0 24.5 -4.5t37.5 -23.5t35.5 -35t12.5 -36q0 -11 -5.5 -26t-19.5 -36q-15 -23 -30.5 -38.5t-32.5 -15.5q-10 0 -25 5t-38 24q-22 17 -34.5 35t-12.5 35q0 12 5 27t19 37z" />
    </font>
</defs>
</svg>
